<?xml version="1.0" standalone="no"?> 
<!DOCTYPE svg PUBLIC "-//W3C//DTD SVG 1.1//EN" "http://www.w3.org/Graphics/SVG/1.1/DTD/svg11.dtd" >
<svg xmlns="http://www.w3.org/2000/svg">
<defs>
  <font id="airglyphs" horiz-adv-x="905">
    <font-face font-family="airglyphs"
      units-per-em="1000" ascent="1150"
      descent="142" />
    <missing-glyph horiz-adv-x="0" />
    <glyph glyph-name="accessible"
      unicode="&#xF101;"
      horiz-adv-x="905" d=" M620 162C635 158 640 149 637 135C606 0 487 -96 350 -96C187 -96 55 36 55 199C55 324 135 436 252 477C263 481 276 475 280 463C285 451 278 438 267 434C167 399 101 304 101 199C101 60 211 -50 350 -50C465 -50 568 32 593 145C596 157 607 165 620 162zM282 697C282 660 313 630 350 630S417 660 417 697S387 765 350 765S282 736 282 697zM846 95C853 82 849 72 836 65L789 42C785 41 782 40 779 40C772 40 766 43 761 50L628 242C625 243 623 244 621 244H384C352 244 327 269 327 300V587C275 598 236 644 236 697C236 760 287 811 350 811S463 760 463 697C463 644 424 598 372 587V470H577C589 470 600 460 600 448C600 435 589 425 577 425H372V300C372 293 376 289 384 289H621C638 289 651 283 661 272L664 269L787 92L816 106C827 111 841 107 846 95z" />
    <glyph glyph-name="add-listing"
      unicode="&#xF102;"
      horiz-adv-x="905" d=" M303 270H428V396C428 410 439 421 453 421C468 421 479 410 479 396V270H604C617 270 628 259 628 246C628 232 617 221 604 221H479V96C479 81 468 70 454 70C439 70 428 81 428 96V220H303C290 220 279 231 279 246C279 259 290 270 303 270zM778 -92V387L453 695L129 387V-92C129 -100 133 -104 141 -104H766C774 -104 778 -100 778 -92zM883 374L901 391C902 392 903 394 903 397C903 399 902 402 901 403L462 817C457 823 450 823 445 817L6 403C5 402 4 400 4 397C4 394 5 392 6 391L24 374C29 369 36 369 41 374L436 748C441 752 447 754 454 754S466 752 471 748L866 374C871 369 878 369 883 374zM497 854L935 439C947 428 954 414 954 397C954 380 947 365 935 354L918 338C905 327 891 321 874 321S844 326 831 338L828 340V-92C828 -127 800 -154 766 -154H141C106 -154 79 -127 79 -92V340L75 338C63 327 50 321 33 321S1 326 -11 338L-28 354C-41 365 -47 380 -47 397C-47 414 -41 428 -28 439L410 854C423 865 437 870 454 870S484 865 497 854z" />
    <glyph glyph-name="add"
      unicode="&#xF103;"
      horiz-adv-x="905" d=" M476 811V380H907C919 380 929 370 929 357C929 344 919 334 907 334H476V-96C476 -108 466 -118 453 -118C440 -118 430 -108 430 -96V334H0C-12 334 -22 344 -22 357C-22 370 -12 380 0 380H430V811C430 823 440 833 453 833C466 833 476 823 476 811z" />
    <glyph glyph-name="air-conditioning"
      unicode="&#xF104;"
      horiz-adv-x="905" d=" M830 252L728 225L838 162C862 146 842 107 815 122L706 186L733 84C736 72 729 59 717 56C703 53 694 58 689 72L650 219L476 319V117L582 11C603 -10 571 -42 550 -21L476 53V-73C476 -85 466 -96 453 -96C440 -96 430 -85 430 -73V53L356 -21C335 -42 303 -10 324 11L430 117V318L257 218L218 72C215 60 202 53 190 56C178 59 171 72 174 84L201 186L92 122C65 107 44 146 69 162L179 225L77 252C65 255 58 268 61 280C64 292 77 299 89 296L234 257L409 357L234 457L89 418C77 415 64 422 61 434C58 446 65 459 77 462L179 489L69 552C45 568 65 607 92 592L201 528L174 630C171 642 178 655 190 658C204 661 213 656 218 642L257 496L430 396V598L324 704C303 725 335 757 356 736L430 662V788C430 800 440 811 453 811C466 811 476 800 476 788V662L550 736C571 757 603 725 582 704L476 598V396L650 496L689 643C692 655 705 662 717 659S736 643 733 631L706 529L815 593C842 608 863 569 838 553L728 490L830 463C842 460 849 447 846 435C843 423 830 416 818 419L672 458L498 358L672 258L818 297C830 300 843 293 846 281C849 268 842 255 830 252z" />
    <glyph glyph-name="air-mattress"
      unicode="&#xF105;"
      horiz-adv-x="905" d=" M808 445C796 470 765 489 737 489H171C143 489 112 470 100 445L-36 168C-42 156 -46 138 -46 125V-29C-46 -80 -4 -122 47 -122H861C912 -122 954 -80 954 -29V125C954 138 950 156 944 168L808 445zM140 425C145 435 160 444 171 444L737 444C748 444 763 435 768 425L874 211C876 206 875 194 869 186C861 175 842 170 816 170H82C67 170 48 172 39 184C32 193 33 206 35 211L140 425zM910 -29C910 -56 888 -78 861 -78H47C20 -78 -2 -56 -2 -29V125C-2 131 1 143 4 149L6 154C22 135 48 126 82 126H816C855 126 884 136 901 156L904 149C907 143 910 132 910 125C910 125 910 22 910 -29z M740 22C740 -14 770 -44 807 -44C843 -44 873 -14 873 22C873 59 843 89 807 89C770 89 740 59 740 22zM807 0C795 0 785 10 785 22S795 44 807 44S829 34 829 22C829 10 820 0 807 0z" />
    <glyph glyph-name="airbnb-alt"
      unicode="&#xF106;"
      horiz-adv-x="905" d=" M453 121C402 185 372 241 362 289C352 328 356 359 373 382C391 409 418 422 453 422S515 409 533 382C550 359 554 328 544 289C533 240 503 184 453 121zM816 78C809 31 777 -8 733 -27C648 -64 563 -5 491 75C611 224 633 340 581 415C551 458 508 479 453 479C342 479 281 385 305 276C319 217 356 150 415 75C378 34 343 5 312 -13C288 -26 265 -34 243 -36C142 -51 63 47 99 148C104 161 114 185 131 222L132 224C187 345 254 481 331 632L333 637L355 679C372 710 379 724 406 741C419 749 435 753 453 753C489 753 517 732 529 715C535 706 542 694 551 679L572 638L575 632C652 481 719 345 774 224L775 223L795 177L807 148C817 125 819 102 816 78zM862 168C855 190 843 216 828 247V248C757 400 690 536 627 658L623 664C578 756 546 811 453 811C361 811 322 747 282 664L279 658C216 536 150 399 79 248V246L58 200C50 181 46 171 45 168C-6 28 99 -95 226 -95C227 -95 231 -95 236 -94C241 -94 246 -94 250 -94C316 -86 384 -44 453 31C522 -44 590 -86 656 -94C660 -94 665 -94 670 -94C675 -95 679 -95 680 -95C808 -95 913 28 862 168z" />
    <glyph glyph-name="airbnb"
      unicode="&#xF107;"
      horiz-adv-x="4114" d=" M3845 102C3929 102 3991 155 3991 240C3991 324 3929 380 3845 380C3802 380 3761 355 3742 326V153C3763 119 3797 102 3845 102zM2686 326V153C2714 119 2749 102 2791 102C2875 102 2935 155 2935 240C2935 324 2875 380 2791 380C2747 380 2706 355 2686 326zM1826 153V326C1795 362 1759 380 1717 380C1634 380 1576 325 1576 240S1634 102 1717 102C1762 102 1798 119 1826 153zM597 -24C668 65 711 144 725 211C732 239 733 267 729 294C729 309 723 326 711 343C682 383 644 403 597 403C546 403 508 383 484 343C473 328 465 312 461 294C461 261 462 233 465 211C485 139 529 61 597 -24zM2021 481V-1H2145V481H2021zM3431 -1H3555V285C3555 366 3536 413 3491 448C3452 478 3408 493 3359 493C3303 493 3259 475 3227 440V462C3227 471 3217 481 3209 481H3108V-1H3236V335C3261 365 3294 380 3336 380C3404 380 3431 350 3431 271V-1zM2459 493C2420 493 2368 468 2344 440V462C2344 475 2338 481 2326 481H2223V-1H2344V335C2368 362 2403 378 2432 380C2460 382 2487 379 2502 375L2513 372V485C2501 490 2483 493 2459 493zM1814 453L1826 440V462C1826 475 1832 481 1844 481H1949V-1H1844C1832 -1 1826 5 1826 16V39C1823 35 1819 30 1813 24C1800 12 1751 -15 1700 -15C1557 -15 1449 95 1449 240C1449 384 1557 493 1700 493C1751 493 1797 470 1814 453zM3864 493C4005 493 4114 384 4114 240C4114 95 4005 -15 3864 -15C3812 -15 3768 7 3753 26L3742 39V16C3742 7 3732 -1 3723 -1H3618V712H3742V440C3743 441 3744 443 3746 446C3750 450 3767 466 3784 475C3800 484 3832 493 3864 493zM2813 493C2950 493 3059 383 3059 240C3059 95 2950 -15 2813 -15C2762 -15 2715 7 2698 26L2686 39V16C2686 5 2680 -1 2668 -1H2563V712H2686V440C2689 444 2694 449 2700 455C2712 467 2762 493 2813 493zM2143 573C2159 589 2167 608 2167 631C2167 676 2130 712 2085 712S2004 676 2004 631S2040 549 2085 549C2108 549 2127 557 2143 573zM1112 -83C1116 -50 1111 -19 1097 12C1092 29 1086 43 1079 53L1052 121C919 401 825 594 770 699L766 707C762 714 741 750 733 767C727 780 715 798 698 821C667 855 634 872 597 872C556 872 521 855 492 821C490 818 485 811 477 798C468 785 461 774 455 767C450 754 442 734 429 707L424 699C328 516 234 323 142 121L138 116C135 111 126 90 111 53C110 50 96 23 93 12C72 -55 80 -121 123 -176C144 -203 171 -223 202 -234C257 -262 344 -247 397 -215C438 -191 487 -149 542 -88C461 5 409 99 387 194C378 239 376 275 379 303C389 343 401 373 416 394C460 455 520 485 597 485C668 485 736 449 779 394C815 325 822 266 807 194C787 109 735 15 651 -88C698 -143 747 -185 797 -215C826 -232 858 -243 893 -248C929 -252 962 -247 993 -234C1056 -211 1101 -151 1112 -83zM1175 39C1193 -10 1197 -55 1188 -98C1175 -193 1112 -275 1025 -312C988 -324 953 -330 920 -330H883C832 -323 790 -307 756 -283C701 -256 648 -212 597 -151C540 -212 487 -256 438 -283C399 -308 356 -323 307 -330H274C237 -330 202 -324 169 -312C80 -275 15 -193 2 -98C-3 -57 1 -11 15 39C16 42 24 59 37 90C45 104 54 125 64 153V158C181 401 277 593 352 734L356 744C367 766 376 786 383 804C387 811 398 829 405 840S422 865 433 876C476 928 530 954 597 954S719 928 760 876C763 872 779 848 807 804C810 797 815 787 823 774C830 760 835 750 838 744L842 734C941 548 1035 356 1124 158V153C1130 144 1137 132 1144 117S1156 93 1157 90C1158 83 1161 75 1166 64S1174 44 1175 39z" />
    <glyph glyph-name="alert-alt"
      unicode="&#xF108;"
      horiz-adv-x="905" d=" M454 858C178 858 -46 634 -46 358S178 -142 454 -142S954 82 954 358S730 858 454 858zM454 -92C206 -92 4 110 4 358S206 808 454 808S904 606 904 358S702 -92 454 -92z M420 617V272C420 253 435 238 454 238C473 238 489 253 489 272V617C489 636 473 651 454 651C435 651 420 636 420 617z M402 117C402 88 426 65 454 65S506 88 506 117S482 168 454 168S402 145 402 117z" />
    <glyph glyph-name="alert-fill"
      unicode="&#xF109;"
      horiz-adv-x="905" d=" M944 -8L763 306C740 347 701 413 678 454L497 767C473 808 435 808 411 767L230 453C207 413 169 346 145 306L-36 -8C-59 -48 -40 -82 7 -82H369C416 -82 492 -82 539 -82H901C948 -82 967 -48 944 -8zM454 26C431 26 411 45 411 68C411 92 431 111 454 111C478 111 497 92 497 68C497 45 478 26 454 26zM497 199C497 184 470 171 454 171C438 171 411 184 411 199V482C411 497 438 510 454 510C470 510 497 497 497 482V199z" />
    <glyph glyph-name="alert"
      unicode="&#xF10A;"
      horiz-adv-x="905" d=" M429 127C423 120 420 113 420 104C420 87 433 72 452 72S484 87 484 104S471 136 452 136C443 136 435 133 429 127zM452 184C464 184 474 194 474 206V434C474 446 464 456 452 456C439 456 429 446 429 434V206C429 194 439 184 452 184zM56 -20L455 711L856 -20H56zM894 -65L917 -42C917 -37 915 -33 912 -28L475 769C471 776 464 780 455 780C446 780 439 776 435 769L-2 -32C-10 -47 -1 -65 18 -65H894z" />
    <glyph glyph-name="alipay"
      unicode="&#xF10B;"
      horiz-adv-x="905" d=" M197 315C172 312 125 301 100 279C23 211 69 89 224 89C315 89 405 147 476 239C375 289 289 324 197 315zM777 230C921 182 954 179 954 179V698C954 786 882 858 794 858H114C26 858 -46 786 -46 698V18C-46 -70 26 -142 114 -142H794C882 -142 954 -70 954 18V25C954 25 694 133 563 196C474 88 361 22 243 22C43 22 -25 197 70 312C91 337 125 361 180 374C265 395 400 361 527 319C550 361 570 408 584 457H193V496H394V568H150V607H395V709C395 709 395 726 412 726H510V607H752V568H510V497H707C688 419 660 348 624 286C684 264 737 244 777 230z" />
    <glyph glyph-name="apartment"
      unicode="&#xF10C;"
      horiz-adv-x="905" d=" M498 -73V63H408V-73H498zM544 334V244H589V334H544zM317 334V244H362V334H317zM611 199H521C508 199 498 209 498 221V357C498 370 508 380 521 380H611C624 380 634 370 634 357V221C634 209 624 199 611 199zM385 199H295C282 199 272 209 272 221V357C272 370 282 380 295 380H385C398 380 408 370 408 357V221C408 209 398 199 385 199zM544 584V494H589V584H544zM317 584V494H362V584H317zM611 449H521C508 449 498 459 498 471V607C498 619 508 630 521 630H611C624 630 634 619 634 607V471C634 459 624 449 611 449zM385 449H295C282 449 272 459 272 471V607C272 619 282 630 295 630H385C398 630 408 619 408 607V471C408 459 398 449 385 449zM725 -73V697H181V-73H362V85C362 98 373 108 385 108H521C533 108 544 98 544 85V-73H725zM147 743H760C767 743 771 747 771 754V777C771 784 767 788 760 788H147C140 788 136 784 136 777V754C136 747 140 743 147 743zM771 699V-73H839C851 -73 861 -83 861 -96C861 -108 851 -118 839 -118H68C56 -118 46 -108 46 -96C46 -83 56 -73 68 -73H136V699C109 704 91 727 91 754V777C91 808 116 833 147 833H759C790 833 815 808 815 777V754C816 727 798 704 771 699z" />
    <glyph glyph-name="archive"
      unicode="&#xF10D;"
      horiz-adv-x="905" d=" M324 142V119C324 112 327 108 334 108H593C600 108 604 112 604 119V142C604 149 600 153 593 153H334C327 153 324 149 324 142zM593 63H334C305 63 281 88 281 119V142C281 173 305 199 334 199H593C622 199 647 173 647 142V119C647 88 622 63 593 63zM863 -62V289H44V-62C44 -69 47 -73 54 -73H853C860 -73 863 -69 863 -62zM825 643L906 316C907 315 907 314 907 313V-62C907 -93 882 -118 853 -118H54C25 -118 0 -93 0 -62V312C0 313 0 314 1 315L68 643C69 672 93 697 122 697H364C375 697 385 687 385 675C385 662 375 652 364 652H122C115 652 111 648 111 641V638L47 334H860L782 638V641C782 648 778 652 771 652H542C531 652 521 662 521 675C521 687 531 697 542 697H771C800 697 824 674 825 643zM333 601L431 502V811C431 823 441 833 453 833C465 833 475 823 475 811V505L561 600C581 623 612 589 592 569L469 433H468C463 428 461 426 453 426C450 426 447 427 445 428C444 428 442 429 441 430L438 432L303 568C283 591 313 621 333 601z" />
    <glyph glyph-name="arrow-down-alt"
      unicode="&#xF10E;"
      horiz-adv-x="905" d=" M454 858C178 858 -46 634 -46 358S178 -142 454 -142S954 82 954 358S730 858 454 858zM454 -97C203 -97 -1 107 -1 358S203 813 454 813S909 609 909 358S705 -97 454 -97zM437 152C445 145 460 145 467 152L580 266C585 268 588 276 588 281S585 291 580 296C573 303 558 303 550 296C550 296 507 261 475 223L475 544C475 557 465 567 452 567S430 557 430 544L430 220L354 296C347 303 331 303 324 296C316 288 316 273 324 266L437 152z" />
    <glyph glyph-name="arrow-down"
      unicode="&#xF10F;"
      horiz-adv-x="905" d=" M227 194L437 -16V790C437 802 448 813 460 813C473 813 483 802 483 790V-16L693 194C704 205 714 205 725 194C730 190 732 185 732 178C732 172 730 167 725 162L476 -87C465 -98 455 -98 444 -87L195 162C174 183 206 215 227 194z" />
    <glyph glyph-name="arrow-left-alt"
      unicode="&#xF110;"
      horiz-adv-x="905" d=" M454 858C178 858 -46 634 -46 358S178 -142 454 -142S954 82 954 358S730 858 454 858zM454 -97C203 -97 -1 107 -1 358S203 813 454 813S909 609 909 358S705 -97 454 -97zM249 373C241 365 241 350 249 343L362 230C364 225 372 222 377 222S387 225 392 230C399 237 399 252 392 260C392 260 357 303 319 335H641C653 335 663 345 663 358C663 370 653 381 641 381H317L392 456C399 464 399 479 392 486C384 494 369 494 362 486L249 373z" />
    <glyph glyph-name="arrow-left"
      unicode="&#xF111;"
      horiz-adv-x="905" d=" M290 584L80 374H886C899 374 909 364 909 351C909 338 899 328 886 328H80L290 117C301 106 301 96 290 85C285 80 280 78 274 78S263 80 258 85L9 334C-2 345 -2 355 9 366L258 616C279 637 311 605 290 584z" />
    <glyph glyph-name="arrow-reply"
      unicode="&#xF112;"
      horiz-adv-x="905" d=" M508 329C219 321 219 89 293 -1C359 -84 508 -134 508 -134C29 -92 -21 346 211 528C335 627 516 618 516 618V850L930 461L508 81V329z" />
    <glyph glyph-name="arrow-right-alt"
      unicode="&#xF113;"
      horiz-adv-x="905" d=" M454 858C178 858 -46 634 -46 358S178 -142 454 -142S954 82 954 358S730 858 454 858zM454 -97C203 -97 -1 107 -1 358S203 813 454 813S909 609 909 358S705 -97 454 -97zM545 486C537 494 522 494 514 486C507 479 507 464 514 456L590 381H266C253 381 243 370 243 358C243 345 253 335 266 335H587C550 303 514 260 514 260C507 252 507 237 514 230C519 225 524 222 529 222S542 225 545 230L658 343C665 350 665 365 658 373L545 486z" />
    <glyph glyph-name="arrow-right"
      unicode="&#xF114;"
      horiz-adv-x="905" d=" M648 616L898 367C909 356 909 346 898 335L648 85C643 80 638 78 632 78C626 78 621 80 616 85C605 96 605 106 616 117L827 327H21C8 327 -2 337 -2 350C-2 363 8 373 21 373H827L616 584C595 605 627 637 648 616z" />
    <glyph glyph-name="arrow-up-alt"
      unicode="&#xF115;"
      horiz-adv-x="905" d=" M454 858C178 858 -46 634 -46 358S178 -142 454 -142S954 82 954 358S730 858 454 858zM454 -97C203 -97 -1 107 -1 358S203 813 454 813S909 609 909 358S705 -97 454 -97zM469 561C462 569 446 569 439 561L326 448C321 446 318 438 318 433S321 423 326 418C333 411 349 411 356 418C356 418 399 453 431 491L431 169C431 157 442 147 454 147S477 157 477 169L477 494L552 418C560 411 575 411 582 418C590 426 590 441 582 448L469 561z" />
    <glyph glyph-name="arrow-up"
      unicode="&#xF116;"
      horiz-adv-x="905" d=" M679 521L469 731V-75C469 -87 458 -98 446 -98C433 -98 423 -87 423 -75V731L213 521C202 510 192 510 181 521C176 525 174 530 174 537C174 543 176 548 181 553L430 802C441 813 451 813 462 802L711 553C732 532 700 500 679 521z" />
    <glyph glyph-name="balloons"
      unicode="&#xF117;"
      horiz-adv-x="905" d=" M679 176C689 176 704 185 724 203C763 238 806 292 837 366C852 403 860 437 860 470C860 569 783 649 686 652C697 623 702 595 702 566C702 470 644 355 571 275C592 245 614 221 635 204C656 185 670 176 679 176zM227 176C236 176 251 185 272 203C293 220 314 244 335 274C262 354 204 470 204 566C204 595 209 623 220 652C123 649 46 569 46 469C46 404 82 324 123 270C143 243 163 220 183 203C202 185 217 176 227 176zM524 291L528 295C597 366 657 470 657 566C657 599 649 631 632 661C631 662 631 662 631 663C595 724 528 765 453 765S311 724 275 663L274 661C257 631 249 599 249 566C249 470 309 366 378 295L382 291C413 260 437 244 453 244C469 244 493 260 524 291zM907 470C907 340 791 171 704 136C706 131 711 122 720 111C738 88 747 65 747 40C747 17 738 -7 720 -31C708 -45 702 -59 702 -73C702 -85 692 -96 679 -96C667 -96 657 -85 657 -73C657 -50 666 -26 684 -2C696 12 702 26 702 40C702 53 696 68 684 83C669 100 661 118 658 135C621 147 581 183 538 242C515 223 495 210 477 203C479 190 485 176 495 160C512 131 521 103 521 74C521 46 512 18 495 -11C482 -32 476 -52 476 -73C476 -85 466 -96 453 -96C440 -96 430 -85 430 -73C430 -44 439 -15 456 12C469 34 476 55 476 74C476 93 469 114 456 136C442 160 434 182 431 202C412 209 391 223 368 242C327 186 288 151 252 136C253 131 258 122 267 111C286 88 295 64 295 40C295 17 286 -6 267 -31C255 -45 249 -59 249 -73C249 -85 239 -96 227 -96C214 -96 204 -85 204 -73C204 -48 213 -25 232 -2C243 13 249 27 249 40S243 67 232 83C217 100 209 118 206 135C121 166 0 339 0 470C0 595 102 697 227 697H243C288 766 366 811 453 811S618 766 663 697H679C805 697 907 595 907 470z" />
    <glyph glyph-name="ban-circle"
      unicode="&#xF118;"
      horiz-adv-x="905" d=" M453 -50C563 -50 657 -12 736 65L161 641C84 562 46 468 46 358C46 132 228 -50 453 -50zM194 672L768 98C830 173 861 259 861 357C861 583 678 765 453 765C355 765 269 734 194 672zM133 679C222 767 328 811 453 811C702 811 907 609 907 358C907 242 868 142 790 56C787 49 784 47 779 44C694 -44 578 -96 453 -96C204 -96 0 106 0 357C0 483 44 590 133 679z" />
    <glyph glyph-name="bar-chart"
      unicode="&#xF119;"
      horiz-adv-x="905" d=" M5 217C8 188 33 166 64 169C79 170 91 177 100 188L154 255L240 138C254 121 270 114 289 118C309 120 323 131 332 151L414 360L533 79C542 58 558 48 580 48H585C606 48 625 64 632 85L745 465L794 364C809 338 839 328 866 341C891 352 903 385 890 410L781 636C771 657 753 667 728 665C708 662 688 648 683 628L572 257L462 521C451 543 434 554 410 554C388 554 372 543 363 521L269 278L199 372C188 387 175 395 158 395C139 395 125 388 115 374L16 255C7 244 4 231 5 217z" />
    <glyph glyph-name="bars"
      unicode="&#xF11A;"
      horiz-adv-x="905" d=" M530 592C517 598 508 607 502 620C473 681 532 742 595 713C608 707 617 698 623 685C652 622 591 563 530 592zM507 448L855 790L52 787L416 449C425 440 429 430 429 417V11C429 -10 419 -24 399 -31C398 -31 398 -31 398 -31L396 -32L199 -70V-72H730L528 -34C527 -33 526 -33 525 -33C505 -26 495 -12 495 9V418C495 430 499 440 507 448zM52 833H855C894 833 915 786 887 758L539 416L540 10L751 -30L752 -31C753 -31 753 -31 754 -31C773 -38 785 -54 785 -73C785 -98 765 -118 740 -118H198C174 -118 154 -97 154 -72V-69C154 -48 164 -34 184 -27H185C186 -26 186 -26 187 -26L385 12L384 416L21 757C-8 786 13 833 52 833z" />
    <glyph glyph-name="bathtub"
      unicode="&#xF11B;"
      horiz-adv-x="905" d=" M839 166V235H68V166C68 54 160 -38 272 -38H634C746 -38 839 54 839 166zM884 302V303C884 315 874 325 862 325H45C33 325 23 315 23 302S33 280 45 280H862C874 280 884 290 884 302zM174 753C149 728 144 691 160 662L264 766C253 772 241 775 228 775C207 775 189 768 174 753zM68 756V371H862C899 371 929 340 929 303V302C929 273 911 247 884 238V166C884 87 854 24 793 -25V-105C793 -118 783 -128 771 -128C758 -128 748 -118 748 -105V-55C713 -74 675 -83 635 -83H272C232 -83 194 -74 159 -55V-105C159 -118 149 -128 137 -128C124 -128 114 -118 114 -105V-25C53 24 23 87 23 166V238C-4 247 -22 273 -22 302S-4 357 23 366V756C23 811 88 843 132 810L150 797L153 794C201 833 271 829 315 785C320 780 322 775 322 769C322 762 320 757 315 753L174 611C163 600 153 600 142 611C118 635 106 664 106 698C106 723 112 743 123 760L105 774C89 785 68 773 68 756z" />
    <glyph glyph-name="bell"
      unicode="&#xF11C;"
      horiz-adv-x="905" d=" M397 712C397 743 422 767 453 767S509 743 509 712C509 709 508 704 505 697C487 700 470 701 454 701C435 701 418 699 401 696C398 699 397 705 397 712zM850 61L739 168C740 172 740 181 740 194V414C740 537 663 645 549 685C551 694 552 703 552 712C552 767 509 811 453 811C398 811 353 767 353 712C353 703 355 694 358 685C245 645 167 537 167 414V194C167 181 167 172 168 168L57 61C57 36 76 17 100 17H354V10C353 8 353 6 353 4C353 -52 397 -96 453 -96S552 -52 552 4C552 6 552 9 552 12C551 15 551 16 551 17H807C831 17 850 37 850 61z" />
    <glyph glyph-name="bellhop"
      unicode="&#xF11D;"
      horiz-adv-x="905" d=" M747 -39V199C747 260 695 312 634 312V221C634 206 618 193 603 200L490 245C489 246 487 247 486 248L476 245V-50H612V153C612 166 622 176 635 176S658 166 658 153V-50H737C743 -50 747 -46 747 -39zM430 -50V245L420 248C419 247 417 246 416 245L303 200C288 193 272 206 272 221V312C211 312 159 260 159 199V-39C159 -46 163 -50 170 -50H249V131C249 143 259 153 272 153S295 143 295 131V-50H430zM442 289H464C472 289 476 293 476 300V323C476 330 472 334 464 334H442C434 334 430 330 430 323V300C430 293 434 289 442 289zM589 370L521 343V283L589 256V370zM385 342L317 369V255L385 282V342zM634 562H272V556C272 461 354 380 453 380S634 460 634 556V562zM219 663L235 607H671L687 663C621 731 543 765 453 765S285 731 219 663zM634 403V358C721 358 793 287 793 199V-39C793 -70 768 -96 737 -96H170C139 -96 114 -70 114 -39V199C114 286 185 358 272 358V403C272 409 274 414 278 418C244 459 227 505 227 556V562H218C207 562 199 567 196 578L172 663C170 670 172 677 177 684C254 769 346 811 453 811S653 769 730 684C735 677 737 670 735 663L711 578C708 567 700 562 689 562H680V556C680 505 663 459 629 418C632 414 634 409 634 403z" />
    <glyph glyph-name="belo-heart"
      unicode="&#xF11E;"
      horiz-adv-x="905" d=" M453 637C409 580 394 512 411 480C418 462 432 453 453 453C474 453 488 462 495 480C512 512 497 580 453 637zM453 -43C740 196 884 394 884 550C884 671 795 765 681 765C607 765 541 734 484 671C539 603 561 519 537 462C522 426 494 408 453 408C373 408 346 485 366 562C376 601 395 637 423 671C391 704 373 724 316 748C287 759 257 765 225 765C112 765 23 671 23 550C23 395 166 196 453 -43zM681 811C821 811 929 695 929 550C929 378 775 165 470 -88C466 -93 460 -96 453 -96C446 -96 440 -93 436 -88C131 165 -22 379 -22 550C-22 695 86 811 225 811C300 811 372 776 403 752C418 739 435 724 453 705C489 742 510 763 576 791C609 804 644 811 681 811z" />
    <glyph glyph-name="birdhouse"
      unicode="&#xF11F;"
      horiz-adv-x="905" d=" M474 323C471 313 464 308 453 308C442 308 435 313 432 323C421 350 391 369 362 369C325 369 294 338 294 301C294 246 357 160 453 81C549 160 613 246 613 301C613 338 582 369 545 369C515 370 485 350 474 323zM362 415C398 415 428 402 453 375C478 402 508 415 544 415C607 415 657 365 657 302C657 229 584 126 467 34C462 31 458 29 453 29C448 29 444 31 439 34C322 126 249 229 249 302C249 365 299 415 362 415zM747 -50V385L453 663L159 385V-50C159 -57 163 -61 170 -61H737C743 -61 747 -57 747 -50zM843 373L859 388C860 389 861 391 861 394C861 396 860 398 859 399L461 774C459 776 456 777 453 777C450 777 447 776 445 774L48 399C47 398 46 396 46 394C46 391 47 389 48 388L64 373C69 368 75 368 80 373L437 711C448 720 458 720 469 711L827 373C832 368 838 368 843 373zM492 807L890 431C901 421 907 408 907 393C907 377 901 364 890 354L874 339C863 329 850 324 835 324C820 324 807 329 796 339L793 341V-50C793 -81 768 -106 737 -106H170C139 -106 114 -81 114 -50V341L111 339C100 329 87 324 72 324S44 329 33 339L17 354C6 364 0 377 0 393C0 408 6 421 17 431L414 807C425 817 438 822 453 822S481 817 492 807z" />
    <glyph glyph-name="boat"
      unicode="&#xF120;"
      horiz-adv-x="905" d=" M412 709V169H813C813 222 787 287 735 364C638 503 526 606 434 689C421 701 413 708 412 709zM198 169V709L181 669C122 526 34 288 34 169H198zM902 80H335V786C335 798 323 811 310 811C295 811 285 806 285 786V80H9C9 20 6 -39 43 -67C62 -81 100 -90 159 -93C190 -95 286 -96 448 -96C619 -96 761 -67 842 -13C882 14 902 45 902 80z" />
    <glyph glyph-name="bolt"
      unicode="&#xF121;"
      horiz-adv-x="905" d=" M498 811L498 403L634 403L408 -96L408 266L272 266z" />
    <glyph glyph-name="book"
      unicode="&#xF122;"
      horiz-adv-x="905" d=" M861 128V643L816 637V176C816 163 806 153 793 153C653 153 534 112 485 64C464 43 442 43 419 64C372 111 242 153 114 153C101 153 91 163 91 176V637L46 643V128L381 35C392 32 398 24 398 13C398 -3 411 -17 426 -17H476C492 -17 506 -2 506 13C506 24 512 32 523 35L861 128zM476 630V115C544 166 642 193 770 198V731C623 727 505 677 476 630zM136 731V198C249 194 367 161 430 114V630C401 677 269 726 136 731zM816 683L881 691C894 692 907 684 907 669V111C907 98 901 91 890 89L549 -5C541 -37 511 -62 476 -62H426C391 -62 362 -37 354 -5L17 89C6 91 0 98 0 111V669C0 684 13 694 26 691L91 682V754C91 767 101 777 114 777C251 777 393 733 453 673C510 734 647 777 792 777C805 777 815 767 815 754V683z" />
    <glyph glyph-name="bullseye"
      unicode="&#xF123;"
      horiz-adv-x="905" d=" M794 666L688 560H761L842 644L794 666zM655 665V591L760 697L739 746L655 665zM540 413L422 293C401 272 369 304 390 325L491 426C472 439 451 445 428 445C367 445 315 395 315 332S365 219 428 219S542 269 542 332C542 337 541 343 540 348C537 360 546 372 558 375S582 369 585 357C586 348 587 339 587 332C587 245 516 173 428 173C341 173 270 245 270 332S341 491 428 491C463 491 495 481 523 460L588 524C541 563 487 582 428 582C291 582 179 470 179 332S291 83 428 83S677 195 677 332C677 373 668 412 649 449C642 462 645 473 658 480C669 485 682 481 689 470C712 427 723 381 723 332C723 169 591 38 428 38S134 171 134 332S265 627 428 627C497 627 557 606 610 565V672C553 703 492 718 428 718C216 718 44 544 44 332S216 -53 428 -53C641 -53 814 120 814 332C814 377 807 420 792 460C787 473 792 483 806 489C821 494 830 489 835 475C851 429 859 381 859 332C859 95 665 -98 428 -98S-2 95 -2 332S191 763 428 763C501 763 570 745 636 709L732 802C743 813 761 809 768 794L795 731L842 779C847 784 852 786 859 786C865 786 870 784 874 779C885 768 885 758 874 747L827 700L889 672C904 665 908 648 896 636L787 521C782 516 777 514 770 514H641L636 509V508L540 413z" />
    <glyph glyph-name="bunk-bed"
      unicode="&#xF124;"
      horiz-adv-x="905" d=" M755 504C744 504 735 496 734 485L635 682V801C635 832 610 858 578 858H330C299 858 273 832 273 801V682L131 399V-120C131 -132 141 -142 153 -142C165 -142 175 -132 175 -120V-69C179 -70 184 -71 188 -71H486V-120C486 -132 495 -142 507 -142S529 -132 529 -120V-71H720C725 -71 729 -70 734 -69V-120C734 -132 743 -142 755 -142S777 -132 777 -120V482C777 494 767 504 755 504zM486 35V-28H188C181 -28 175 -21 175 -14V35H486zM175 166V249C179 248 184 248 188 248H215L175 166zM486 354V291H188C181 291 175 297 175 305V354H486zM486 248V79H179L264 248H486zM507 504C495 504 485 494 485 482V397H179L299 638H348C357 616 378 602 401 602H507C530 602 551 616 560 638H609L729 397H529V482C529 494 519 504 507 504zM521 659C521 652 515 645 507 645H401C393 645 387 652 387 659V712C387 720 393 726 401 726H507C515 726 521 720 521 712V659zM592 681H564V712C564 744 539 769 507 769H401C369 769 344 744 344 712V681H316V801C316 809 322 815 330 815H578C586 815 592 809 592 801V681zM720 291H529V354H733V305C734 297 727 291 720 291zM529 248H720C724 248 729 248 733 249V185H529V248zM734 141V79H529V141H734zM734 35V-14C734 -22 727 -28 720 -28H529V35H734z" />
    <glyph glyph-name="bus"
      unicode="&#xF125;"
      horiz-adv-x="905" d=" M747 -28V18H657V-28C657 -40 667 -50 679 -50H725C737 -50 747 -40 747 -28zM249 -28V18H159V-28C159 -40 169 -50 181 -50H227C239 -50 249 -40 249 -28zM647 186C656 195 666 199 679 199C704 199 725 178 725 153S704 108 679 108S634 128 634 153C634 166 638 177 647 186zM195 186C204 195 214 199 227 199C252 199 272 178 272 153S252 108 227 108S181 128 181 153C181 166 186 177 195 186zM680 300V573C680 580 676 584 669 584H238C231 584 227 580 227 573V300C227 293 231 289 238 289H669C676 289 680 293 680 300zM724 573V301C724 269 699 244 667 244H238C206 244 181 269 181 301V573C181 605 206 630 238 630H667C699 630 724 605 724 573zM589 675H317C305 675 295 685 295 698C295 710 305 720 317 720H589C601 720 611 710 611 698C611 685 601 675 589 675zM793 74V697C793 734 763 765 726 765H181C144 765 114 734 114 697V74C114 67 118 63 125 63H782C789 63 793 67 793 74zM181 811H725C788 811 838 760 838 697V74C838 47 819 24 792 19V-28C792 -65 762 -96 725 -96H679C642 -96 611 -65 611 -28V18H295V-28C295 -65 264 -96 227 -96H181C144 -96 114 -65 114 -28V19C87 24 68 47 68 74V697C68 760 118 811 181 811z" />
    <glyph glyph-name="cabin"
      unicode="&#xF126;"
      horiz-adv-x="905" d=" M768 -15L757 -28H572C565 -28 556 -24 546 -15C546 -2 559 12 572 12H757L760 9C764 1 768 -7 768 -15zM338 -28H155L142 -15C142 -6 146 3 155 12H338C341 12 344 11 346 8C349 4 350 -4 350 -15L349 -18C349 -25 345 -28 338 -28zM768 76L757 64H572C564 64 555 68 546 76C546 89 559 103 572 103H757L760 99C764 92 768 85 768 76zM338 64H155L142 76C142 85 146 94 155 103H338C341 103 344 102 346 99C349 95 350 87 350 76L349 73C349 67 345 64 338 64zM756 155H572H559C550 155 546 159 546 168C546 181 559 193 572 193H757L760 190C765 185 768 177 768 168C768 161 763 155 760 155H756zM338 155H152C145 155 142 159 142 168C142 178 146 186 155 193H338C341 193 344 192 346 189C349 186 350 179 350 168C350 155 350 155 338 155zM729 247H168L155 259C155 268 159 276 168 285H729C742 285 756 272 756 259L752 256C745 250 737 247 729 247zM168 377H729H743C752 375 756 371 756 365C756 361 754 358 751 356C748 353 740 352 729 352H165C158 353 155 358 155 365C155 373 159 377 168 377zM246 482H663L667 479C674 471 677 463 677 456L663 443H246L232 456C232 465 237 474 246 482zM325 573H572H585C590 573 598 568 598 560C598 547 585 535 572 535H325L322 538C315 544 311 551 311 560C311 569 316 573 325 573zM404 677H507L510 673C517 667 521 660 521 652C521 643 516 639 507 639H400C393 640 390 645 390 652C390 661 395 669 404 677zM899 299C881 327 804 420 668 577C589 666 515 752 488 784L467 808H442C385 742 318 662 239 568C119 427 43 336 11 299C4 299 1 295 1 286S4 272 11 272H76V-67C76 -80 73 -93 89 -93H390L393 -90C400 -83 404 -75 404 -67V168H507V-67C507 -76 512 -85 521 -93H820L823 -90C830 -82 833 -74 833 -67V272H885C892 273 897 278 902 287C907 295 906 299 899 299z" />
    <glyph glyph-name="calendar-alt"
      unicode="&#xF127;"
      horiz-adv-x="905" d=" M430 58V362H325C312 362 302 372 302 385C302 397 312 407 325 407H581C594 407 604 397 604 385C604 372 594 362 581 362H476V58C476 45 466 35 453 35C440 35 430 45 430 58zM816 -39V494H91V-39C91 -46 95 -50 102 -50H805C812 -50 816 -46 816 -39zM91 539H816V686C816 694 812 698 805 698H703V675C703 638 672 607 635 607S567 638 567 675V698H340V675C340 638 309 607 272 607S204 638 204 675V698H102C95 698 91 694 91 686V539zM611 743V675C611 663 621 653 634 653S657 663 657 675V743C657 755 647 765 634 765S611 755 611 743zM249 743V675C249 663 259 653 272 653S295 663 295 675V743C295 755 285 765 272 765S249 755 249 743zM702 743H804C835 743 860 717 860 686V-39C860 -70 835 -96 804 -96H102C71 -96 46 -70 46 -39V686C46 717 71 743 102 743H204C204 780 235 811 272 811S340 780 340 743H566C566 780 597 811 634 811S702 780 702 743z" />
    <glyph glyph-name="calendar"
      unicode="&#xF128;"
      horiz-adv-x="905" d=" M885 718H772V751C772 805 729 849 675 849H657C603 849 559 805 559 751V718H358V751C358 805 314 849 261 849H243C189 849 145 805 145 751V718H23C-15 718 -46 692 -46 654V-64C-46 -102 -15 -133 23 -133H666C668 -133 670 -132 672 -132C675 -131 679 -130 682 -127C683 -127 683 -127 684 -126C685 -125 686 -125 687 -124C687 -124 687 -124 687 -123L946 146C946 146 946 147 946 147C948 148 949 150 950 152C951 153 951 153 951 154C952 156 953 158 953 161C953 161 953 162 954 162C954 163 954 165 954 166V654C954 692 923 718 885 718M610 751C610 772 627 798 649 798H682C704 798 721 772 721 751V629C721 608 704 582 682 582H649C627 582 610 608 610 630V751zM196 751C196 772 213 798 235 798H268C290 798 307 772 307 751V630C307 608 290 582 268 582H235C213 582 196 608 196 630V751zM15 668H145V630C145 576 189 532 242 532H260C314 532 358 576 358 630V668H559V630C559 576 603 532 657 532H675C728 532 772 576 772 630V668H893C899 668 903 664 903 658V455H5V658C5 664 9 668 15 668M5 -72V405L903 405V192H671C654 192 641 179 641 163V-82L15 -82C9 -82 5 -78 5 -72M691 -46V141H872L691 -46z" />
    <glyph glyph-name="camera"
      unicode="&#xF129;"
      horiz-adv-x="905" d=" M325 184C360 149 403 131 453 131C553 131 635 212 635 313S554 494 453 494S272 413 272 313C272 262 290 219 325 184zM784 503C793 512 803 516 816 516C841 516 861 496 861 471S841 426 816 426S771 446 771 471C771 484 775 494 784 503zM293 473C337 517 390 539 453 539C578 539 679 438 679 312S578 85 453 85S227 187 227 312C227 376 249 429 293 473zM907 63V516C907 541 886 562 861 562H736C709 562 681 580 669 604L620 670C611 685 585 697 566 697H340C321 697 297 685 286 670L237 604C225 580 197 562 170 562H46C21 562 0 541 0 516V63C0 38 21 18 46 18H861C886 18 907 38 907 63zM736 607H861C912 607 952 567 952 516V63C952 12 912 -28 861 -28H46C-5 -28 -45 12 -45 63V516C-45 567 -5 607 46 607H170C183 607 192 613 197 625L199 629L249 697C269 724 308 743 340 743H566C598 743 637 723 657 698L707 629L709 625C714 613 723 607 736 607z" />
    <glyph glyph-name="camper"
      unicode="&#xF12A;"
      horiz-adv-x="905" d=" M693 179C693 234 650 276 595 276S495 232 495 179C495 124 540 78 595 78S693 123 693 179zM467 527V385C467 378 464 375 457 375H277C270 375 267 378 267 385V454C267 499 312 536 367 536H457C464 537 467 534 467 527zM524 637C271 637 140 554 140 402C140 370 145 337 155 304H32C15 304 1 290 1 273C1 257 15 243 32 243H185C215 201 257 180 312 180H459C459 255 520 316 596 316C672 316 733 255 733 180H735C835 180 907 250 907 402C907 559 780 637 524 637z" />
    <glyph glyph-name="car"
      unicode="&#xF12B;"
      horiz-adv-x="905" d=" M816 -5V88C816 86 808 85 793 85H726V-5C726 -17 736 -28 749 -28H794C806 -28 816 -17 816 -5zM181 -5V85H114C99 85 91 86 91 88V-5C91 -17 101 -28 114 -28H159C171 -28 181 -17 181 -5zM670 280C679 271 689 266 702 266C727 266 747 287 747 312S727 357 702 357S657 337 657 312C657 299 661 289 670 280zM172 280C181 271 191 266 204 266C229 266 249 287 249 312S229 357 204 357S159 337 159 312C159 299 163 289 172 280zM638 377C655 394 677 403 702 403C753 403 792 362 792 313C792 262 751 222 702 222C651 222 611 264 611 313C611 337 620 358 638 377zM140 377C157 394 179 403 204 403C255 403 295 362 295 313S255 222 204 222C155 222 114 262 114 313C114 337 123 358 140 377zM862 199V403C862 442 833 471 794 471H114C77 471 46 442 46 403V199C46 162 77 131 114 131H794C833 131 862 162 862 199zM206 695L145 516H762L701 694C692 723 665 743 636 743H271C242 743 215 723 206 695zM743 708L809 515C865 507 906 459 906 403V199C906 166 891 136 860 108V-5C860 -42 830 -73 793 -73H748C711 -73 679 -42 679 -5V85H227V-5C227 -42 196 -73 159 -73H114C77 -73 46 -42 46 -5V108C15 136 0 166 0 199V403C0 459 41 507 97 515L163 709C176 756 220 788 271 788H635C686 788 730 756 743 708z" />
    <glyph glyph-name="caret-down"
      unicode="&#xF12C;"
      horiz-adv-x="905" d=" M200 526H716C726 526 735 522 742 515C757 499 756 482 741 463L484 204C467 189 449 189 431 204L174 463C150 486 167 526 200 526z" />
    <glyph glyph-name="caret-left"
      unicode="&#xF12D;"
      horiz-adv-x="905" d=" M621 612V95C621 85 617 76 610 69C594 54 577 55 558 70L300 327C285 344 285 362 300 380L558 638C581 662 621 645 621 612z" />
    <glyph glyph-name="caret-right"
      unicode="&#xF12E;"
      horiz-adv-x="905" d=" M285 104V621C285 631 289 640 296 647C312 662 329 661 348 646L606 389C621 372 621 354 606 336L348 78C325 54 285 71 285 104z" />
    <glyph glyph-name="caret-up"
      unicode="&#xF12F;"
      horiz-adv-x="905" d=" M716 189H200C167 189 150 229 174 252L431 511C449 526 467 526 484 511L741 252C756 233 757 216 742 200C735 193 726 189 716 189z" />
    <glyph glyph-name="castle"
      unicode="&#xF130;"
      horiz-adv-x="905" d=" M385 -118H521V-5C521 32 490 63 453 63S385 32 385 -5V-118zM725 40V108H657V40H725zM249 40V108H181V40H249zM634 153H747C759 153 769 143 769 131V18C769 6 759 -5 747 -5H634C621 -5 611 6 611 18V131C611 143 621 153 634 153zM159 153H272C284 153 294 143 294 131V18C294 6 284 -5 272 -5H159C146 -5 136 6 136 18V131C136 143 146 153 159 153zM566 -5V-118H825C833 -118 837 -114 837 -106V312H726V244C726 232 716 221 703 221H204C192 221 181 232 181 244V312H71V-106C71 -114 75 -118 82 -118H340V-5C340 58 390 109 453 109S566 58 566 -5zM421 413C412 404 408 394 408 381C408 356 428 336 453 336C478 336 498 356 498 381S478 426 453 426C440 426 430 422 421 413zM702 449V358H862V449H839V426C839 414 829 404 816 404H748C736 404 726 414 726 426V449H702zM46 449V358H204V449H181V426C181 414 171 403 159 403H91C79 403 68 414 68 426V449H46zM517 445C535 427 544 406 544 381C544 332 504 291 453 291C404 291 363 332 363 381C363 432 404 472 453 472C478 472 499 463 517 445zM340 516V266H566V516H340zM453 686L345 562H562L453 686zM566 788V833H476V788H566zM816 494H884C897 494 907 484 907 472V335C907 322 897 312 884 312H882V-106C882 -138 857 -163 825 -163H82C51 -163 25 -138 25 -106V312H23C11 312 0 322 0 335V472C0 484 11 494 23 494H91C104 494 114 484 114 472V449H136V472C136 484 147 494 159 494H227C239 494 249 484 249 472V341C250 340 250 338 250 335C250 322 239 312 227 312V266H295V516C286 516 279 521 274 530C271 540 272 548 278 554L430 728V856C430 868 440 878 453 878H589C601 878 611 868 611 856V765C611 753 601 742 589 742H476V729L629 554C641 539 632 516 612 516H611V267H679V313C664 314 657 322 657 336V472C657 484 667 494 680 494H747C760 494 770 484 770 472V449H793V472C794 484 804 494 816 494z" />
    <glyph glyph-name="cat"
      unicode="&#xF131;"
      horiz-adv-x="905" d=" M804 278V388C779 371 743 363 694 366C619 367 548 388 519 403C504 410 485 421 461 436C420 461 404 472 358 482C335 487 309 489 282 488C139 488 27 371 34 231C35 214 38 192 45 167H690C752 167 804 217 804 278zM677 508H748C756 508 760 497 755 490L719 455C714 450 710 450 705 455L670 490C663 497 668 508 677 508zM792 598C811 598 826 583 826 564S811 530 792 530C773 530 759 545 759 564S775 598 792 598zM609 588C616 595 624 598 633 598C652 598 667 583 667 564S652 530 633 530C614 530 599 545 599 564C599 573 602 581 609 588zM695 412H712C805 415 881 492 881 585C881 631 865 671 834 704L800 647C791 635 776 634 765 643C753 655 734 661 707 661C680 661 661 655 649 643C638 632 621 636 614 647L580 704C549 671 533 631 533 585C532 493 604 419 695 412zM926 585C926 518 900 462 849 417V415V278C849 191 778 122 689 122H66C83 94 102 72 123 55C185 4 256 -16 335 -3C362 1 394 11 432 28C492 54 548 67 600 67C613 67 623 57 623 44C623 32 613 22 600 22C554 22 504 10 449 -13C408 -32 373 -43 342 -48C325 -50 308 -51 292 -51C141 -51 -4 57 -12 228C-19 395 113 533 281 533C344 536 403 518 430 506C443 499 461 489 484 475C509 460 527 451 536 446C503 486 487 532 487 585C487 656 515 713 570 757C581 766 597 762 604 751L639 691C658 701 680 706 706 706C731 706 753 701 772 691L808 751C815 762 831 766 842 757C898 713 926 656 926 585z" />
    <glyph glyph-name="checkbox"
      unicode="&#xF132;"
      horiz-adv-x="905" d=" M315 139L156 310C151 314 148 320 148 327C148 333 151 339 156 344L211 409C222 420 234 420 246 409L350 299C357 294 363 291 368 291C373 291 379 294 386 299L645 590C647 595 651 598 658 598S670 595 675 590L735 525C741 513 741 502 735 491L420 139C407 126 393 119 380 119H356C343 119 330 126 315 139zM777 810H125C57 810 1 751 1 680V33C1 -36 57 -95 125 -95H777C846 -95 906 -35 906 33V680C906 751 846 810 777 810z" />
    <glyph glyph-name="chevron-down"
      unicode="&#xF133;"
      horiz-adv-x="905" d=" M922 570L468 117C457 106 447 106 436 117L-17 570C-21 575 -23 581 -23 586C-23 599 -13 609 0 609C6 609 11 607 15 602L452 165L890 602C894 607 899 609 906 609C912 609 917 607 922 602C931 591 931 581 922 570z" />
    <glyph glyph-name="chevron-left"
      unicode="&#xF134;"
      horiz-adv-x="905" d=" M213 373L665 826C676 835 686 835 697 826C702 821 704 816 704 810C704 803 702 798 697 794L261 356L697 -81C702 -85 704 -90 704 -96C704 -109 694 -119 681 -119C675 -119 670 -117 665 -113L213 340C202 351 202 361 213 373z" />
    <glyph glyph-name="chevron-right"
      unicode="&#xF135;"
      horiz-adv-x="905" d=" M241 826L693 373C704 362 704 352 693 341L241 -113C236 -117 230 -119 225 -119C212 -119 202 -109 202 -96C202 -90 204 -85 209 -81L645 356L209 794C204 798 202 803 202 810C202 816 204 821 209 826C220 835 230 835 241 826z" />
    <glyph glyph-name="chevron-up"
      unicode="&#xF136;"
      horiz-adv-x="905" d=" M-14 145L439 598C450 609 460 609 471 598L925 145C929 140 931 135 931 129C931 116 921 106 909 106C902 106 897 108 893 113L455 550L18 113C14 108 9 106 3 106C-4 106 -9 108 -14 113C-23 124 -23 134 -14 145z" />
    <glyph glyph-name="city"
      unicode="&#xF137;"
      horiz-adv-x="905" d=" M326 -17V29H281V-17H326zM145 -17V29H100V-17H145zM848 29H780C767 29 757 39 757 51C757 64 767 74 780 74H848C860 74 870 64 870 51C870 39 860 29 848 29zM258 74H349C361 74 372 64 372 51V-39C372 -52 361 -62 349 -62H258C246 -62 236 -52 236 -39V51C236 64 246 74 258 74zM77 74H168C180 74 191 64 191 51V-39C191 -52 180 -62 168 -62H77C65 -62 55 -52 55 -39V51C55 64 65 74 77 74zM848 119H780C767 119 757 129 757 142C757 154 767 164 780 164H848C860 164 870 154 870 142C870 129 860 119 848 119zM326 164V210H281V164H326zM145 164V210H100V164H145zM848 210H780C767 210 757 220 757 232C757 245 767 255 780 255H848C860 255 870 245 870 232C870 220 860 210 848 210zM258 255H349C361 255 372 245 372 232V142C372 129 361 119 349 119H258C246 119 236 129 236 142V232C236 245 246 255 258 255zM77 255H168C180 255 191 245 191 232V142C191 129 180 119 168 119H77C65 119 55 129 55 142V232C55 245 65 255 77 255zM911 -128V318L712 319L711 -128L910 -130C911 -129 911 -129 911 -128zM-4 312V-118C-4 -126 0 -130 7 -130H415C422 -130 426 -126 426 -118V312C426 319 422 323 415 323H7C0 323 -4 319 -4 312zM784 528H593V-118C593 -119 593 -121 593 -124C592 -127 592 -129 592 -130H666V-128V318C666 343 687 365 712 365H794V516C795 524 791 528 784 528zM362 586C371 577 381 573 394 573C419 573 439 593 439 618S419 663 394 663S349 643 349 618C349 605 353 595 362 586zM459 682C476 664 485 643 485 618C485 569 445 528 394 528S304 569 304 618C304 669 345 709 394 709C419 709 441 700 459 682zM236 663V369H415C446 369 472 344 472 313V-118C472 -121 471 -126 470 -131H500C501 -130 502 -130 504 -130H542C547 -127 549 -123 549 -118V546C549 547 549 548 548 549V550C548 551 548 552 548 553L549 554V663C538 682 486 740 393 837C304 745 251 687 236 663zM840 516V365H910C935 365 956 343 956 318V-128C956 -153 935 -175 910 -175H504C503 -175 503 -175 502 -174H500H423C421 -175 418 -175 415 -175H7C-24 -175 -49 -150 -49 -118V312C-49 343 -24 368 7 368H193V666C193 685 254 757 377 883C381 888 386 890 393 890C399 890 404 888 408 883C531 757 593 685 593 666V573H666V686C666 698 676 709 688 709C701 709 711 698 711 686V573H783C815 573 840 547 840 516z" />
    <glyph glyph-name="cloud"
      unicode="&#xF138;"
      horiz-adv-x="905" d=" M199 531C222 531 243 524 264 509L286 493L297 517C340 606 431 664 530 664C675 664 788 549 788 406V373L802 368C863 341 903 282 903 216C903 125 830 51 739 51H738L734 54H171V31L168 54C77 55 3 130 3 221C3 280 34 334 85 366L98 374L94 397C91 412 90 421 90 424C90 484 138 531 199 531zM739 6C855 6 949 100 949 216C949 293 906 366 834 403V406C834 489 804 561 745 620C688 679 616 709 530 709C423 709 323 651 268 559C245 570 222 576 199 576C114 576 44 508 44 423C44 418 45 408 48 395C-8 354 -42 289 -42 221C-42 105 52 9 168 8H724C731 7 736 6 739 6z" />
    <glyph glyph-name="code"
      unicode="&#xF139;"
      horiz-adv-x="905" d=" M581 188C586 188 591 190 597 195L727 325C736 335 741 347 741 361S736 387 726 397L597 526C592 531 587 533 581 533C574 533 569 531 565 526C554 515 554 505 565 494L695 364C698 361 697 359 694 356L565 227C554 216 554 206 565 195C570 190 575 188 581 188zM331 188C337 188 342 190 347 195C358 206 358 216 347 227L218 356C215 359 215 361 218 364L347 494C368 515 336 547 315 526L186 397C176 387 171 375 171 361S176 335 186 325L315 195C321 190 326 188 331 188zM423 131H426C439 131 446 138 448 151L503 566C505 581 499 589 484 592C471 593 459 585 458 572L403 157C401 142 408 134 423 131zM165 646C244 725 340 765 453 765C678 765 861 583 861 358C861 133 678 -50 453 -50S46 133 46 357C46 471 86 567 165 646zM133 37C222 -52 328 -96 453 -96C702 -96 907 108 907 357C907 608 702 811 453 811S0 609 0 357C0 232 44 126 133 37z" />
    <glyph glyph-name="cog"
      unicode="&#xF13A;"
      horiz-adv-x="905" d=" M357 261C384 234 416 221 453 221C528 221 589 282 589 358S528 494 453 494S317 433 317 358C317 320 330 288 357 261zM325 486C360 521 403 539 453 539C553 539 635 458 635 357S554 176 453 176S272 257 272 357C272 408 290 451 325 486zM861 328V386C861 392 858 396 852 397L801 405C768 410 737 440 724 469C712 494 714 540 734 568L763 610C767 615 767 620 762 625L722 665C717 670 712 670 707 666L665 637C641 618 597 615 566 627C537 640 507 671 502 704L494 755C493 761 489 764 483 764H425C419 764 415 761 414 755L406 704C401 671 371 640 342 627C331 622 317 620 301 620C278 620 258 626 243 637L201 666C196 670 191 670 186 665L146 625C141 620 141 615 145 610L174 568C194 540 196 494 184 469C171 440 140 410 107 405L56 397C50 396 47 392 47 386V328C47 322 50 318 56 317L107 309C140 304 171 274 184 245C196 220 194 174 174 146L145 104C141 99 141 94 146 89L186 49C191 44 196 44 201 48L243 77C258 88 278 94 301 94C333 94 358 84 383 56C396 42 403 27 406 10L414 -41C415 -47 419 -50 425 -50H483C489 -50 493 -47 494 -41L502 10C507 43 537 74 566 87C577 92 591 94 607 94C630 94 650 88 665 77L707 48C712 44 717 44 722 49L762 89C767 94 767 99 763 104L734 146C714 174 712 220 724 245C737 274 768 304 801 309L852 317C858 318 861 322 861 328zM809 451L860 442C885 438 907 414 907 387V329C907 302 886 278 859 274L809 265C793 264 773 246 766 229S761 186 770 173L800 131C816 108 813 77 794 58L754 18C735 -1 702 -3 681 12L639 42C624 53 605 54 583 46C566 39 548 19 547 3L538 -47C534 -74 510 -95 483 -95H425C398 -95 374 -74 370 -47L361 3C360 19 342 39 325 46S282 51 269 42L227 12C206 -3 173 -1 154 18L114 58C95 77 92 108 108 131L138 173C147 186 149 212 142 229C135 246 115 264 99 265L48 274C23 278 1 302 1 329V387C1 414 22 438 49 442L99 451C115 452 135 470 142 487C149 504 147 530 138 543L108 585C92 608 95 639 114 658L154 698C173 717 206 719 227 704L269 674C284 663 303 662 325 670C342 677 360 697 361 713L370 763C374 790 398 811 425 811H483C510 811 534 790 538 763L547 713C548 697 566 677 583 670S626 665 639 674L681 704C702 719 735 717 754 698L794 658C813 639 816 608 800 585L770 543C761 530 759 504 766 487C773 470 793 452 809 451z" />
    <glyph glyph-name="comment-negative"
      unicode="&#xF13B;"
      horiz-adv-x="905" d=" M455 289C524 289 585 268 638 225C662 206 639 185 624 185C618 185 613 187 610 190C565 226 513 244 455 244S345 226 299 190C290 182 275 184 268 193C259 205 260 216 271 225C325 268 386 289 455 289zM536 417C545 408 555 403 568 403C593 403 613 424 613 449C613 473 593 494 568 494S523 473 523 449C523 436 527 426 536 417zM374 481C365 490 355 494 342 494C317 494 296 473 296 449C296 424 317 403 342 403S387 424 387 449C387 461 383 472 374 481zM504 513C522 530 543 539 568 539C617 539 658 498 658 449C658 398 617 358 568 358C519 358 477 400 477 449C477 474 486 495 504 513zM406 385C388 367 367 358 342 358C293 358 251 400 251 449S293 539 342 539S432 498 432 449C432 424 423 402 406 385zM455 -5C679 -5 863 157 863 357S679 720 455 720C230 720 47 558 47 357C47 290 66 228 105 171C109 165 110 158 108 151L60 8L210 58C212 59 214 59 217 59C221 59 225 58 229 56C296 15 372 -5 455 -5zM228 711C297 747 373 765 455 765C619 765 766 687 848 563C888 500 908 431 908 357C908 209 822 77 682 5C613 -32 537 -50 455 -50C366 -50 286 -29 215 12L32 -49C31 -50 28 -50 25 -50C12 -50 -1 -40 3 -21L61 155C22 219 2 286 2 357C2 506 88 638 228 711z" />
    <glyph glyph-name="comment-positive"
      unicode="&#xF13C;"
      horiz-adv-x="905" d=" M455 160C576 263 636 347 636 410C636 457 601 494 557 494C528 494 501 481 476 454L472 450C463 441 446 440 438 449L436 451L433 454C408 481 381 494 352 494C308 494 274 457 274 410C274 344 334 261 455 160zM557 539C626 539 682 482 682 409C682 329 612 231 471 115C466 110 461 108 455 108C448 108 442 110 438 115C298 230 228 328 228 410C228 482 283 539 352 539C389 539 424 525 455 497C484 525 518 539 557 539zM455 -5C679 -5 863 157 863 357S679 720 455 720C230 720 47 558 47 357C47 290 66 228 105 171C109 165 110 158 108 151L60 8L210 58C212 59 214 59 217 59C221 59 225 58 229 56C296 15 372 -5 455 -5zM228 711C297 747 373 765 455 765C619 765 766 687 848 563C888 500 908 431 908 357C908 209 822 77 682 5C613 -32 537 -50 455 -50C366 -50 286 -29 215 12L32 -49C31 -50 28 -50 25 -50C12 -50 -1 -40 3 -21L61 155C22 219 2 286 2 357C2 506 88 638 228 711z" />
    <glyph glyph-name="comment"
      unicode="&#xF13D;"
      horiz-adv-x="905" d=" M636 334C648 334 658 345 658 357S648 380 636 380C623 380 613 369 613 357S623 334 636 334zM455 334C467 334 477 345 477 357S467 380 455 380C442 380 432 369 432 357S442 334 455 334zM274 334C286 334 296 345 296 357S286 380 274 380C261 380 251 369 251 357S261 334 274 334zM588 406C601 419 617 426 636 426C673 426 704 395 704 358S673 290 636 290S568 321 568 358C568 377 575 393 588 406zM407 406C420 419 436 426 455 426C492 426 523 395 523 358S492 290 455 290S387 321 387 358C387 377 394 393 407 406zM226 406C239 419 255 426 274 426C311 426 342 395 342 358S311 290 274 290S206 321 206 358C206 377 213 393 226 406zM455 -5C679 -5 863 157 863 357S679 720 455 720C230 720 47 558 47 357C47 290 66 228 105 171C109 165 110 158 108 151L60 8L210 58C212 59 214 59 217 59C221 59 225 58 229 56C296 15 372 -5 455 -5zM228 711C297 747 373 765 455 765C619 765 766 687 848 563C888 500 908 431 908 357C908 209 822 77 682 5C613 -32 537 -50 455 -50C366 -50 286 -29 215 12L32 -49C31 -50 28 -50 25 -50C12 -50 -1 -40 3 -21L61 155C22 219 2 286 2 357C2 506 88 638 228 711z" />
    <glyph glyph-name="comments"
      unicode="&#xF13E;"
      horiz-adv-x="905" d=" M753 -8L847 -39L818 50C816 57 817 64 821 70C847 109 860 152 860 199C860 278 826 343 758 392C719 235 565 121 384 121C355 121 329 123 306 128C341 23 453 -52 577 -52C636 -52 688 -38 734 -10C739 -6 746 -5 753 -8zM566 496C554 496 544 485 544 473C544 460 554 450 566 450C579 450 589 460 589 473C589 485 579 496 566 496zM362 473C362 460 373 450 385 450C398 450 408 460 408 473C408 485 398 496 385 496C373 496 362 485 362 473zM204 450C217 450 227 460 227 473C227 485 217 496 204 496C192 496 181 485 181 473C181 460 192 450 204 450zM614 425C601 412 585 405 566 405C529 405 498 436 498 473S529 541 566 541S634 510 634 473C634 454 627 438 614 425zM453 473C453 434 424 405 385 405C348 405 317 436 317 473S348 541 385 541S453 510 453 473zM156 521C169 534 185 541 204 541C241 541 272 510 272 473C272 434 241 405 204 405S136 436 136 473C136 492 143 508 156 521zM196 216C251 183 314 166 384 166C555 166 699 281 719 430C719 431 719 432 720 433C720 434 720 434 720 435C721 450 722 460 722 467C722 632 569 767 384 767C197 767 46 632 46 467C46 411 62 360 93 312C97 306 98 299 96 292L59 179L177 218C181 219 184 220 185 220C188 220 192 219 196 216zM865 54L905 -68C912 -85 897 -97 884 -97C881 -97 878 -97 877 -96L749 -54C696 -83 638 -97 577 -97C422 -97 287 4 256 140C231 148 206 159 182 172L30 122C13 115 -5 133 2 150L50 296C17 349 0 405 0 467C0 658 172 812 384 812C595 812 768 658 768 467C768 456 768 447 767 442C855 386 907 296 907 199C907 148 893 99 865 54z" />
    <glyph glyph-name="couch"
      unicode="&#xF13F;"
      horiz-adv-x="905" d=" M243 501C260 501 274 515 274 533S260 564 243 564S211 550 211 533S225 501 243 501z M445 501C462 501 476 515 476 533S462 564 445 564S413 550 413 533S427 501 445 501z M647 501C664 501 678 515 678 533S664 564 647 564S615 550 615 533S630 501 647 501z M555 391C572 391 587 405 587 422S572 454 555 454S524 440 524 422S538 391 555 391z M335 391C352 391 366 405 366 422S352 454 335 454S303 440 303 422S317 391 335 391z M932 162L932 162C929 167 860 277 843 328C826 378 826 496 826 553V560C826 594 814 625 792 647C775 665 753 674 730 674H160C114 674 64 631 64 560V551C64 494 65 377 47 328V328C30 276 -27 163 -27 162C-38 141 -46 106 -46 82V64C-46 12 -5 -30 46 -32V-120C46 -132 56 -142 68 -142S91 -132 91 -120V-32H817V-120C817 -132 827 -142 840 -142S862 -132 862 -120V-32C913 -30 954 12 954 64V82C954 107 944 141 932 162zM109 551V560C109 603 135 630 160 630H730C740 630 751 625 760 615C774 602 781 582 781 560V552C781 494 781 387 797 327C730 332 574 344 454 344C318 344 133 329 93 326C109 385 109 492 109 551zM12 142C12 142 13 142 13 142C13 143 52 221 77 280L89 281C97 281 305 299 454 299C593 299 783 284 814 281C839 227 882 157 892 142H12zM909 82V64C909 36 886 13 858 13H50C22 13 -1 36 -1 64V82C-1 86 -1 91 0 97H908C909 91 909 86 909 82z" />
    <glyph glyph-name="crib"
      unicode="&#xF140;"
      horiz-adv-x="905" d=" M368 632L374 663L346 651L318 669L322 636L298 616L329 608L342 578L358 606L389 607z M458 609L458 642L433 621L403 630L414 599L395 572L427 574L445 549L454 580L484 592z M789 487C773 509 740 526 713 526H553V664C553 672 556 710 532 737C523 747 505 760 476 760C452 760 433 753 420 738C397 712 398 675 399 664L399 661H444L443 667L443 667C441 694 451 706 452 708C457 713 465 716 476 716C486 716 494 713 499 707C509 696 508 674 508 668L508 526H184C156 526 124 509 108 487L16 359H15V358L15 358L15 358V63V-14V-120C15 -132 25 -142 38 -142C50 -142 60 -132 60 -120V-14H836V-120C836 -132 846 -142 859 -142S881 -132 881 -120V-14V63V357L882 358L789 487zM144 461C152 471 171 481 184 481H713C726 481 745 471 753 461L827 359H70L144 461zM180 30H60V63V314H180V30zM344 30H224V314H344V30zM508 30H388V314H508V30zM672 30H553V314H672V30zM717 30V314H836V63V30H717z" />
    <glyph glyph-name="cup-alt"
      unicode="&#xF141;"
      horiz-adv-x="905" d=" M798 420H643C642 420 642 420 642 420H362H358H18C-17 420 -46 392 -46 357V274C-46 51 124 -131 340 -142C346 -142 353 -142 360 -142C360 -142 360 -142 360 -142C360 -142 360 -142 360 -142C367 -142 373 -142 380 -142C538 -134 670 -32 730 108H797C882 108 954 177 954 262S883 420 798 420zM797 170H751C759 204 766 237 766 274V357C766 357 765 358 765 358H798C849 358 891 313 891 262C892 211 848 170 797 170z M360 483C343 483 329 497 329 514V827C329 844 343 858 360 858S391 844 391 827V514C391 497 377 483 360 483z M485 483C468 483 454 497 454 514V702C454 719 468 733 485 733S516 719 516 702V514C516 497 502 483 485 483z M235 483C218 483 204 497 204 514V702C204 719 218 733 235 733S266 719 266 702V514C266 497 252 483 235 483z" />
    <glyph glyph-name="cup"
      unicode="&#xF142;"
      horiz-adv-x="905" d=" M713 198H770C821 198 861 239 861 288C861 337 821 379 770 379H724C724 378 724 376 725 373C725 370 725 368 725 367V288C725 257 721 227 713 198zM679 288V367C679 375 675 379 668 379H57C50 379 46 375 46 367V297C46 122 179 -21 348 -29C528 -37 679 108 679 288zM57 425H770C845 425 907 364 907 288C907 213 846 152 770 152H702H699C678 103 649 61 612 26C542 -41 459 -74 363 -74H345C152 -65 0 98 0 297V367C0 399 26 425 57 425zM458 506C474 527 473 556 469 572C466 580 462 592 456 608C439 649 435 681 443 704C448 716 461 722 473 717C484 713 490 700 486 688C481 677 485 656 498 625C513 586 519 573 516 534C514 514 507 496 494 479C490 473 484 470 476 470C465 470 456 476 454 489C453 496 454 501 458 506zM231 506C244 523 245 541 238 555C231 569 216 595 210 605C204 615 194 634 191 649C188 664 189 684 194 703C199 716 208 721 222 718C234 714 241 701 237 689C231 668 238 642 259 609C279 577 287 566 287 531C286 513 280 496 268 479C263 473 257 470 250 470C244 470 239 471 236 474C224 483 222 493 231 506zM350 473C338 482 336 492 344 505C360 530 360 558 352 579C348 589 341 603 332 622C312 665 303 678 304 719C304 739 310 758 321 776C330 788 340 790 352 783C363 776 366 761 359 752C352 741 348 729 348 717C348 693 354 679 373 643C394 600 402 586 402 542C401 520 395 499 382 480C377 473 371 470 363 470C358 470 354 471 350 473z" />
    <glyph glyph-name="currency-brl"
      unicode="&#xF143;"
      horiz-adv-x="905" d=" M613 272C618 274 622 277 627 280C636 287 641 296 641 307C641 328 630 337 598 345V269C602 269 607 270 613 272zM280 464V385H348C379 385 391 396 391 425C391 451 377 464 348 464H280zM562 471C556 469 552 467 550 465C543 461 539 453 539 440C539 423 548 416 575 409V473C569 473 565 472 562 471zM218 229V513H370C418 513 453 479 453 435C453 400 438 376 408 364V363C423 359 433 351 439 338C446 328 449 314 449 297C449 294 449 292 450 289V281L452 262C452 249 455 239 461 230H399C396 238 394 249 393 262C392 277 390 289 389 298C386 327 370 341 342 341H280V230H218zM544 285C553 276 563 271 575 269V352H573C572 353 570 353 569 353L562 355C507 371 483 385 483 434C483 482 524 518 575 518V549H598V518C621 516 642 508 659 495C676 480 685 460 687 434H631C631 455 617 472 598 472V402L608 399C613 398 616 398 618 397C651 388 674 374 687 353C694 340 697 324 697 305C697 272 663 227 598 223V189H575V223C514 226 481 259 477 321H532C532 305 536 293 544 285zM308 704C217 664 147 596 108 503C88 456 78 408 78 357C78 220 151 99 267 32C324 -1 387 -18 454 -18C590 -18 710 54 777 170C810 227 827 291 827 358C827 458 786 556 718 624C649 692 553 734 454 734C403 734 354 724 308 704zM454 811C574 811 690 762 773 679C854 596 905 478 905 358C905 237 855 120 773 37C690 -46 574 -95 454 -95C333 -95 216 -46 133 37C52 120 2 237 2 358S52 596 133 679C216 762 333 811 454 811z" />
    <glyph glyph-name="currency-chf"
      unicode="&#xF144;"
      horiz-adv-x="905" d=" M748 468V429H646V380H734V344H646V257H599V468H748zM425 468V387H511V468H558V256H511V347H425V256H379V468H425zM295 412C290 419 287 422 285 423C277 430 267 434 254 434C235 434 220 427 210 412C201 396 197 379 197 361C197 352 198 343 200 336C205 319 214 305 228 296C235 293 244 291 254 291C282 291 299 310 302 338H347C343 285 306 252 254 252C238 252 224 255 211 260C184 271 167 291 158 318C153 330 151 344 151 361C151 379 153 394 158 406C166 433 184 452 211 465C226 470 240 473 254 473C281 473 298 467 315 454C332 440 343 421 346 397H301C300 402 298 407 295 412zM308 704C217 664 147 596 108 503C88 456 78 408 78 357C78 220 151 99 267 32C324 -1 387 -18 454 -18C590 -18 710 54 777 170C810 227 827 291 827 358C827 458 786 556 718 624C649 692 553 734 454 734C403 734 354 724 308 704zM454 811C574 811 690 762 773 679C854 596 905 478 905 358C905 237 855 120 773 37C690 -46 574 -95 454 -95C333 -95 216 -46 133 37C52 120 2 237 2 358S52 596 133 679C216 762 333 811 454 811z" />
    <glyph glyph-name="currency-czk"
      unicode="&#xF145;"
      horiz-adv-x="905" d=" M659 359H716C715 384 704 405 684 421C665 434 642 441 615 441C600 441 584 438 568 433C543 422 524 401 511 371C507 358 505 343 505 324C505 305 508 290 513 280C517 267 524 256 535 245C552 224 579 214 614 214C643 214 666 221 685 236C703 252 714 274 718 302H660C659 290 655 279 647 269C638 262 627 258 613 258C582 258 564 293 564 326C564 333 565 341 566 350C569 369 578 382 591 389C596 394 604 396 615 396C640 397 655 385 659 359zM282 519V394L398 519H480L364 401L491 219H409L319 354L282 316V220H216V519H282zM690 526H644L617 492L592 526H543L589 466H644L690 526zM308 704C217 664 147 596 108 503C88 456 78 408 78 357C78 220 151 99 267 32C324 -1 387 -18 454 -18C590 -18 710 54 777 170C810 227 827 291 827 358C827 458 786 556 718 624C649 692 553 734 454 734C403 734 354 724 308 704zM454 811C574 811 690 762 773 679C854 596 905 478 905 358C905 237 855 120 773 37C690 -46 574 -95 454 -95C333 -95 216 -46 133 37C52 120 2 237 2 358S52 596 133 679C216 762 333 811 454 811z" />
    <glyph glyph-name="currency-eur"
      unicode="&#xF146;"
      horiz-adv-x="905" d=" M476 514C430 514 400 485 385 426H543L523 379H379L377 353H516L495 306H383C397 238 429 204 479 204C510 204 543 217 578 244L577 147C548 130 515 122 478 122C373 122 307 190 288 306H239L259 353H283V369C283 372 283 373 284 374V378L285 379H237L257 426H291C301 478 322 519 354 549C387 582 430 598 483 598C521 598 560 587 601 566L562 486C530 505 502 514 476 514zM308 704C217 664 147 596 108 503C88 456 78 408 78 357C78 220 151 99 267 32C324 -1 387 -18 454 -18C590 -18 710 54 777 170C810 227 827 291 827 358C827 458 786 556 718 624C649 692 553 734 454 734C403 734 354 724 308 704zM454 811C574 811 690 762 773 679C854 596 905 478 905 358C905 237 855 120 773 37C690 -46 574 -95 454 -95C333 -95 216 -46 133 37C52 120 2 237 2 358S52 596 133 679C216 762 333 811 454 811z" />
    <glyph glyph-name="currency-gbp"
      unicode="&#xF147;"
      horiz-adv-x="905" d=" M319 218C336 231 350 249 360 272C364 284 366 295 366 305C366 314 362 328 354 348H289V401H331C324 408 318 421 312 438C305 451 302 469 302 490C302 507 306 523 313 538C319 553 329 567 344 580C375 605 415 618 465 618C564 618 622 561 622 457H536C536 498 521 543 466 543C429 543 403 519 403 483C403 481 403 478 404 475C404 472 404 470 404 469C404 460 407 447 414 431C416 428 418 424 420 420C424 412 427 408 429 405C430 403 430 402 430 401H515V348H448C450 337 451 330 452 329V307C452 274 435 244 400 218L401 217C418 226 432 231 445 231C449 231 454 231 460 231C465 230 469 230 470 230C471 229 480 228 495 225C516 220 533 217 545 217C554 217 562 219 571 222C578 223 588 230 602 244L640 180C613 153 580 140 540 140C517 140 494 143 471 150C450 159 428 163 407 163C380 163 355 155 333 140L294 198C298 202 307 209 319 218zM308 704C217 664 147 596 108 503C88 456 78 408 78 357C78 220 151 99 267 32C324 -1 387 -18 454 -18C590 -18 710 54 777 170C810 227 827 291 827 358C827 458 786 556 718 624C649 692 553 734 454 734C403 734 354 724 308 704zM454 811C574 811 690 762 773 679C854 596 905 478 905 358C905 237 855 120 773 37C690 -46 574 -95 454 -95C333 -95 216 -46 133 37C52 120 2 237 2 358S52 596 133 679C216 762 333 811 454 811z" />
    <glyph glyph-name="currency-huf"
      unicode="&#xF148;"
      horiz-adv-x="905" d=" M675 439V395H625V271C625 248 633 242 654 242C656 242 658 242 660 243H665L675 245V192C674 192 672 192 667 191C662 190 659 190 656 190H636C584 190 558 200 558 248V395H517V439H558V513H625V439H675zM503 533V471H338V392H481V334H338V192H264V533H503zM308 704C217 664 147 596 108 503C88 456 78 408 78 357C78 220 151 99 267 32C324 -1 387 -18 454 -18C590 -18 710 54 777 170C810 227 827 291 827 358C827 458 786 556 718 624C649 692 553 734 454 734C403 734 354 724 308 704zM454 811C574 811 690 762 773 679C854 596 905 478 905 358C905 237 855 120 773 37C690 -46 574 -95 454 -95C333 -95 216 -46 133 37C52 120 2 237 2 358S52 596 133 679C216 762 333 811 454 811z" />
    <glyph glyph-name="currency-idr"
      unicode="&#xF149;"
      horiz-adv-x="905" d=" M640 288C650 295 658 307 663 323C664 328 664 336 664 347C664 358 664 366 663 371C658 387 650 399 638 408C630 411 623 413 616 413C584 413 568 386 568 347C568 338 569 330 570 323C574 307 582 295 594 288C601 284 608 282 616 282S632 284 640 288zM566 451V425H568C581 446 601 456 628 456C659 456 682 445 698 423C713 406 721 380 721 347S713 290 698 274C683 253 661 242 631 242C606 242 586 252 570 272H569V176H514V451H566zM297 480V402H364C393 402 408 415 408 441C408 467 393 480 364 480H297zM235 246V528H387C412 528 444 524 464 481C467 469 469 459 469 451C469 419 457 395 425 380C439 375 449 366 455 354C461 346 464 333 465 314C465 311 465 309 466 307V298C466 295 467 288 468 279C468 266 471 255 477 247H415C412 255 410 266 409 279C408 294 407 306 405 315C402 344 389 357 358 357H297V247H235zM308 704C217 664 147 596 108 503C88 456 78 408 78 357C78 220 151 99 267 32C324 -1 387 -18 454 -18C590 -18 710 54 777 170C810 227 827 291 827 358C827 458 786 556 718 624C649 692 553 734 454 734C403 734 354 724 308 704zM454 811C574 811 690 762 773 679C854 596 905 478 905 358C905 237 855 120 773 37C690 -46 574 -95 454 -95C333 -95 216 -46 133 37C52 120 2 237 2 358S52 596 133 679C216 762 333 811 454 811z" />
    <glyph glyph-name="currency-ils"
      unicode="&#xF14A;"
      horiz-adv-x="905" d=" M612 269H421V399H357V269L356 263C356 238 365 206 421 206H612V205H676V532H612V269zM485 334H548V468C548 515 511 532 492 532H485H229V206H294V468H485V334zM266 33C150 100 78 222 78 357C78 457 120 556 188 624C257 692 354 734 454 734C553 734 649 692 718 624C786 556 827 457 827 357C827 221 756 99 641 32C584 -1 521 -18 454 -18C386 -18 323 -1 266 33zM454 811C333 811 216 762 133 679C52 596 2 479 2 358S52 120 133 37C216 -46 333 -95 454 -95C574 -95 690 -46 773 37C854 120 905 237 905 358C905 479 855 596 773 679C690 762 574 811 454 811z" />
    <glyph glyph-name="currency-inr"
      unicode="&#xF14B;"
      horiz-adv-x="905" d=" M582 398L600 448H537C535 459 531 472 524 487H582L600 537H294L274 487H362C402 485 428 472 439 448H294L274 398H436C434 391 429 384 421 376C418 376 403 368 394 363C390 363 385 362 380 361C371 360 365 359 362 359C351 358 340 357 327 357H285V310H291C314 310 337 298 362 269L478 141H589L426 319C455 327 478 336 493 345C514 360 527 378 532 397H582zM308 704C217 664 147 596 108 503C88 456 78 408 78 357C78 220 151 99 267 32C324 -1 387 -18 454 -18C590 -18 710 54 777 170C810 227 827 291 827 358C827 458 786 556 718 624C649 692 553 734 454 734C403 734 354 724 308 704zM454 811C574 811 690 762 773 679C854 596 905 478 905 358C905 237 855 120 773 37C690 -46 574 -95 454 -95C333 -95 216 -46 133 37C52 120 2 237 2 358S52 596 133 679C216 762 333 811 454 811z" />
    <glyph glyph-name="currency-jpy"
      unicode="&#xF14C;"
      horiz-adv-x="905" d=" M408 231H315V278H408V300L399 314H315V361H371L281 515H376L454 361L530 515H625L535 361H590V314H506L497 300V278H590V231H497V163H408V231zM308 704C217 664 147 596 108 503C88 456 78 408 78 357C78 220 151 99 267 32C324 -1 387 -18 454 -18C590 -18 710 54 777 170C810 227 827 291 827 358C827 458 786 556 718 624C649 692 553 734 454 734C403 734 354 724 308 704zM454 811C574 811 690 762 773 679C854 596 905 478 905 358C905 237 855 120 773 37C690 -46 574 -95 454 -95C333 -95 216 -46 133 37C52 120 2 237 2 358S52 596 133 679C216 762 333 811 454 811z" />
    <glyph glyph-name="currency-krw"
      unicode="&#xF14D;"
      horiz-adv-x="905" d=" M527 315H548L537 269L527 315zM355 315H374L365 269L355 315zM510 408H568L558 363H519L510 408zM443 408H457L465 363H434L443 408zM335 408H392L383 363H345L335 408zM292 315L331 179H397L424 315H475L502 179H569L608 315H678V362H620L634 407H678V454H647L665 517H594L579 454H500L487 517H413L400 454H325L310 517H236L253 454H222V407H267L280 362H222V315H292zM308 704C217 664 147 596 108 503C88 456 78 408 78 357C78 220 151 99 267 32C324 -1 387 -18 454 -18C590 -18 710 54 777 170C810 227 827 291 827 358C827 458 786 556 718 624C649 692 553 734 454 734C403 734 354 724 308 704zM454 811C574 811 690 762 773 679C854 596 905 478 905 358C905 237 855 120 773 37C690 -46 574 -95 454 -95C333 -95 216 -46 133 37C52 120 2 237 2 358S52 596 133 679C216 762 333 811 454 811z" />
    <glyph glyph-name="currency-myr"
      unicode="&#xF14E;"
      horiz-adv-x="905" d=" M262 444V378H318C341 378 353 389 353 411S341 444 318 444H262zM518 483L572 322H573L624 483H696V249H649V415H648L591 249H551L494 413V249H446V483H518zM210 249V483H336C377 483 404 455 404 419C404 389 392 370 367 361V360C392 353 397 338 401 305C401 303 401 301 402 299V292C402 291 402 289 403 285C403 281 403 278 403 277C403 268 406 259 411 250H360C357 258 355 267 354 277C353 306 348 325 341 333C334 338 324 341 313 341H262V250H210zM308 704C217 664 147 596 108 503C88 456 78 408 78 357C78 220 151 99 267 32C324 -1 387 -18 454 -18C590 -18 710 54 777 170C810 227 827 291 827 358C827 458 786 556 718 624C649 692 553 734 454 734C403 734 354 724 308 704zM454 811C574 811 690 762 773 679C854 596 905 478 905 358C905 237 855 120 773 37C690 -46 574 -95 454 -95C333 -95 216 -46 133 37C52 120 2 237 2 358S52 596 133 679C216 762 333 811 454 811z" />
    <glyph glyph-name="currency-nok"
      unicode="&#xF14F;"
      horiz-adv-x="905" d=" M601 451V404H602C609 422 619 435 633 443C650 454 662 458 683 458C688 458 691 457 695 457C696 456 697 456 698 456V391C695 391 691 392 686 393H673C648 393 629 385 618 370C610 355 604 337 604 312V197H533V451H601zM329 548V359L417 450H498L403 357L510 197H425L356 310L329 284V197H259V548H329zM308 704C217 664 147 596 108 503C88 456 78 408 78 357C78 220 151 99 267 32C324 -1 387 -18 454 -18C590 -18 710 54 777 170C810 227 827 291 827 358C827 458 786 556 718 624C649 692 553 734 454 734C403 734 354 724 308 704zM454 811C574 811 690 762 773 679C854 596 905 478 905 358C905 237 855 120 773 37C690 -46 574 -95 454 -95C333 -95 216 -46 133 37C52 120 2 237 2 358S52 596 133 679C216 762 333 811 454 811z" />
    <glyph glyph-name="currency-php"
      unicode="&#xF150;"
      horiz-adv-x="905" d=" M406 352V364H523C514 356 501 352 482 352H406zM406 405V418H542V405H406zM406 458V467H482C499 467 513 464 523 458H406zM666 418V458H618C611 479 601 494 588 505C565 526 534 536 495 536H324V458H260V418H324V405H260V365H324V143H406V284H488C531 284 565 294 588 313C603 326 614 343 619 364H666V404H623C624 405 624 407 624 411V417H666zM308 704C217 664 147 596 108 503C88 456 78 408 78 357C78 220 151 99 267 32C324 -1 387 -18 454 -18C590 -18 710 54 777 170C810 227 827 291 827 358C827 458 786 556 718 624C649 692 553 734 454 734C403 734 354 724 308 704zM454 811C574 811 690 762 773 679C854 596 905 478 905 358C905 237 855 120 773 37C690 -46 574 -95 454 -95C333 -95 216 -46 133 37C52 120 2 237 2 358S52 596 133 679C216 762 333 811 454 811z" />
    <glyph glyph-name="currency-pln"
      unicode="&#xF151;"
      horiz-adv-x="905" d=" M392 420H265V474H487V420L349 263H497V209H254V263L392 420zM505 327V381L538 406V574H610V466L646 491V441L610 412V209H538V355L505 327zM308 704C217 664 147 596 108 503C88 456 78 408 78 357C78 220 151 99 267 32C324 -1 387 -18 454 -18C590 -18 710 54 777 170C810 227 827 291 827 358C827 458 786 556 718 624C649 692 553 734 454 734C403 734 354 724 308 704zM454 811C574 811 690 762 773 679C854 596 905 478 905 358C905 237 855 120 773 37C690 -46 574 -95 454 -95C333 -95 216 -46 133 37C52 120 2 237 2 358S52 596 133 679C216 762 333 811 454 811z" />
    <glyph glyph-name="currency-rub"
      unicode="&#xF152;"
      horiz-adv-x="905" d=" M513 304C530 315 541 332 547 356C549 369 550 382 550 394C550 405 549 416 547 429C544 441 539 451 533 460C520 481 501 491 477 491C463 491 452 488 444 482C424 469 412 452 409 429C406 418 405 407 405 394C405 380 406 367 409 356C410 347 414 337 421 325C438 305 456 295 477 295C491 295 503 298 513 304zM403 547V509H405C425 540 458 554 495 554C583 554 634 485 634 391C634 350 620 303 600 282C577 249 544 233 500 233C461 233 431 249 409 280H408V136H325V547H403zM308 704C217 664 147 596 108 503C88 456 78 408 78 357C78 220 151 99 267 32C324 -1 387 -18 454 -18C590 -18 710 54 777 170C810 227 827 291 827 358C827 458 786 556 718 624C649 692 553 734 454 734C403 734 354 724 308 704zM454 811C574 811 690 762 773 679C854 596 905 478 905 358C905 237 855 120 773 37C690 -46 574 -95 454 -95C333 -95 216 -46 133 37C52 120 2 237 2 358S52 596 133 679C216 762 333 811 454 811z" />
    <glyph glyph-name="currency-thb"
      unicode="&#xF153;"
      horiz-adv-x="905" d=" M480 231V337C533 337 544 310 536 262C530 249 511 238 480 231zM423 340V231H386V340H423zM480 401V491C516 484 530 467 530 451C530 438 528 427 523 420C520 410 506 404 480 401zM423 398H386V491H423V398zM423 119H480V175C557 183 585 197 605 228C618 245 624 262 624 281C624 320 607 336 576 356C559 365 547 370 539 372L546 377C550 380 552 381 552 381C555 381 558 383 561 388C590 405 605 430 605 463C605 473 604 480 602 485C602 490 599 497 592 506C582 519 570 528 555 534C527 543 502 547 480 547V616H423V547H314V175H423V119zM308 704C217 664 147 596 108 503C88 456 78 408 78 357C78 220 151 99 267 32C324 -1 387 -18 454 -18C590 -18 710 54 777 170C810 227 827 291 827 358C827 458 786 556 718 624C649 692 553 734 454 734C403 734 354 724 308 704zM454 811C574 811 690 762 773 679C854 596 905 478 905 358C905 237 855 120 773 37C690 -46 574 -95 454 -95C333 -95 216 -46 133 37C52 120 2 237 2 358S52 596 133 679C216 762 333 811 454 811z" />
    <glyph glyph-name="currency-try"
      unicode="&#xF154;"
      horiz-adv-x="905" d=" M612 313V320H656C656 209 583 160 496 147C473 143 443 141 405 141C401 142 396 142 390 142V335L301 320V365L390 379V424L301 409V453L390 468V587H434V476L568 499V454L434 432V387L568 410V366L434 343V187C530 187 580 223 601 268C608 285 612 300 612 313zM308 704C217 664 147 596 108 503C88 456 78 408 78 357C78 220 151 99 267 32C324 -1 387 -18 454 -18C590 -18 710 54 777 170C810 227 827 291 827 358C827 458 786 556 718 624C649 692 553 734 454 734C403 734 354 724 308 704zM454 811C574 811 690 762 773 679C854 596 905 478 905 358C905 237 855 120 773 37C690 -46 574 -95 454 -95C333 -95 216 -46 133 37C52 120 2 237 2 358S52 596 133 679C216 762 333 811 454 811z" />
    <glyph glyph-name="currency-usd"
      unicode="&#xF155;"
      horiz-adv-x="905" d=" M519 216C506 202 491 194 472 191V321C515 311 536 290 536 258C536 241 530 227 519 216zM434 527V411C397 427 381 435 381 470C381 487 386 499 395 506C400 513 413 520 434 527zM571 357C538 384 517 386 472 401V527C497 517 513 500 520 475C525 454 537 444 557 444C578 444 596 462 596 481C596 494 591 511 568 543C543 568 511 582 472 585V631C472 647 466 655 454 655C441 655 434 647 434 631V585C393 581 361 569 338 548C317 525 306 497 306 464C306 438 311 416 322 398C337 373 374 352 434 334V194C405 203 392 216 384 235C381 239 376 251 370 272C361 291 353 295 333 295C312 295 294 279 294 258C294 245 297 232 304 219C315 191 337 167 372 148C389 141 410 135 434 131V76C434 58 441 49 454 49C466 49 472 60 472 83V132C499 134 524 141 547 154C589 181 610 219 610 267C610 303 597 333 571 357zM308 704C217 664 147 596 108 503C88 456 78 408 78 357C78 220 151 99 267 32C324 -1 387 -18 454 -18C590 -18 710 54 777 170C810 227 827 291 827 358C827 458 786 556 718 624C649 692 553 734 454 734C403 734 354 724 308 704zM454 811C574 811 690 762 773 679C854 596 905 478 905 358C905 237 855 120 773 37C690 -46 574 -95 454 -95C333 -95 216 -46 133 37C52 120 2 237 2 358S52 596 133 679C216 762 333 811 454 811z" />
    <glyph glyph-name="currency-vnd"
      unicode="&#xF156;"
      horiz-adv-x="905" d=" M338 127H529V168H338V127zM467 282C455 267 439 259 418 259C397 259 380 267 369 282C358 299 353 321 353 347C353 396 373 435 418 435C433 435 446 430 457 421C474 406 483 380 483 345C483 320 478 299 467 282zM448 491C434 499 418 503 400 503C324 503 274 442 274 342C274 255 326 194 395 194C434 194 463 211 484 244V203H558V526H592V568H558V598H481V568H402V526H481V459C472 474 461 484 448 491zM308 704C217 664 147 596 108 503C88 456 78 408 78 357C78 220 151 99 267 32C324 -1 387 -18 454 -18C590 -18 710 54 777 170C810 227 827 291 827 358C827 458 786 556 718 624C649 692 553 734 454 734C403 734 354 724 308 704zM454 811C574 811 690 762 773 679C854 596 905 478 905 358C905 237 855 120 773 37C690 -46 574 -95 454 -95C333 -95 216 -46 133 37C52 120 2 237 2 358S52 596 133 679C216 762 333 811 454 811z" />
    <glyph glyph-name="currency-zar"
      unicode="&#xF157;"
      horiz-adv-x="905" d=" M390 500V387H477C514 387 533 406 533 444C533 481 514 500 477 500H390zM311 168V568H506C522 568 537 565 550 559C579 546 597 526 604 500C609 489 612 475 612 458C612 410 594 374 555 358V357C573 351 586 339 595 321C601 304 605 285 608 263C608 248 609 235 610 226V214C613 193 617 178 622 169H543C538 182 536 197 535 214L530 265C525 306 510 324 470 324H390V168H311zM308 704C217 664 147 596 108 503C88 456 78 408 78 357C78 220 151 99 267 32C324 -1 387 -18 454 -18C590 -18 710 54 777 170C810 227 827 291 827 358C827 458 786 556 718 624C649 692 553 734 454 734C403 734 354 724 308 704zM454 811C574 811 690 762 773 679C854 596 905 478 905 358C905 237 855 120 773 37C690 -46 574 -95 454 -95C333 -95 216 -46 133 37C52 120 2 237 2 358S52 596 133 679C216 762 333 811 454 811z" />
    <glyph glyph-name="dates-price"
      unicode="&#xF158;"
      horiz-adv-x="905" d=" M524 215C518 211 511 209 504 209S490 211 484 215C479 222 477 228 477 235C477 241 479 248 484 255C489 260 496 262 504 262C519 262 532 250 532 235C532 228 529 222 524 215zM830 78L624 282C618 289 611 292 603 292L493 301C486 304 479 302 471 295L447 268C441 265 438 258 438 247L448 137C448 131 451 124 458 115L663 -88C670 -95 676 -95 682 -88L830 59C836 65 836 71 830 78zM692 287V529H157V75H425L511 -8H71V669H185V740C185 780 216 811 256 811C295 811 324 780 324 740V669H523V740C523 779 556 811 593 811C633 811 664 780 664 740V669H778V201L692 287z" />
    <glyph glyph-name="description-alt"
      unicode="&#xF159;"
      horiz-adv-x="905" d=" M385 63H521C533 63 543 53 543 41C543 28 533 18 521 18H385C372 18 362 28 362 41C362 53 372 63 385 63zM521 153H181C169 153 159 163 159 176C159 189 169 199 181 199H521C533 199 543 189 543 176C543 163 533 153 521 153zM521 266H181C169 266 159 276 159 289S169 312 181 312H521C533 312 543 302 543 289S533 266 521 266zM521 381H181C169 381 159 391 159 404C159 416 169 426 181 426H521C533 426 543 416 543 404C543 391 533 381 521 381zM227 494H181C169 494 159 504 159 517C159 529 169 539 181 539H227C239 539 249 529 249 517C249 504 239 494 227 494zM634 -47V584H91V-44V-50H634V-47zM87 630H642C667 630 679 619 679 591V-47C679 -84 663 -96 642 -96H87C60 -96 46 -79 46 -44V589C46 616 60 630 87 630zM181 720H732C759 720 770 709 770 682V40C770 28 760 18 747 18C735 18 725 28 725 40V675H181C169 675 159 685 159 698C159 710 169 720 181 720zM272 811H823C848 811 860 800 860 773V131C860 118 850 108 837 108C825 108 815 118 815 131V765H272C259 765 249 775 249 788S259 811 272 811z" />
    <glyph glyph-name="description"
      unicode="&#xF15A;"
      horiz-adv-x="905" d=" M249 176H657C669 176 679 166 679 154C679 141 669 131 657 131H249C237 131 227 141 227 154C227 166 237 176 249 176zM249 312H657C669 312 679 302 679 289S669 266 657 266H249C237 266 227 276 227 289S237 312 249 312zM234 410C229 414 227 419 227 426C227 439 237 449 249 449H657C669 449 679 439 679 426S669 403 657 403H249C243 403 238 405 234 410zM430 539H249C237 539 227 549 227 562C227 574 237 584 249 584H430C443 584 453 574 453 562C453 549 443 539 430 539zM738 584L589 733V596C589 588 593 584 600 584H738zM771 -39V539H600C569 539 544 564 544 596V765H147C140 765 136 761 136 754V-39C136 -46 140 -50 147 -50H760C767 -50 771 -46 771 -39zM810 577L816 562V-39C816 -70 791 -96 760 -96H147C116 -96 91 -70 91 -39V754C91 785 116 811 147 811H566C571 811 576 809 581 805L582 804L809 578L810 577z" />
    <glyph glyph-name="desktop"
      unicode="&#xF15B;"
      horiz-adv-x="905" d=" M589 18V108H317V18H589zM91 607V244H816V607H91zM46 199V652H861V199H46zM907 165V686C907 693 903 697 895 697H12C4 697 0 693 0 686V165C0 157 4 153 12 153H895C903 153 907 157 907 165zM12 743H895C926 743 952 717 952 686V165C952 133 926 108 895 108H634V18H747C760 18 770 7 770 -5S760 -28 747 -28H159C146 -28 136 -17 136 -5S146 18 159 18H272V108H12C-19 108 -45 133 -45 165V686C-45 717 -19 743 12 743z" />
    <glyph glyph-name="dog"
      unicode="&#xF15C;"
      horiz-adv-x="905" d=" M685 414L687 419L690 423C695 428 703 436 713 448C668 463 633 492 610 535C586 516 560 507 533 507H324C239 507 166 446 159 368V19C159 12 163 8 170 8H193C200 8 204 12 204 19V188C204 225 235 257 272 257H566C603 257 634 227 634 188V18C634 11 638 7 645 7L668 8C676 8 679 13 679 18V378C679 390 681 402 685 414zM929 597V665C888 667 853 677 826 695C811 705 792 710 771 710C739 710 705 676 690 653C682 641 678 634 678 632L658 591C653 582 648 575 645 570C662 529 699 498 743 487C753 502 759 514 761 525C766 553 795 574 826 574H907C919 574 929 584 929 597zM931 710C955 709 974 689 974 665V597C974 560 944 529 907 529H826C814 529 807 524 805 515C798 482 772 442 728 395C727 392 726 386 726 378V18C726 -13 697 -39 669 -39H646C615 -39 590 -13 590 18V188C590 201 580 211 567 211H272C259 211 249 201 249 188V19C249 -13 224 -39 193 -39H170C139 -39 114 -13 114 19V370V373C69 341 9 325 -67 325V370C-7 370 37 378 70 399C103 419 115 430 143 461C152 472 160 479 165 484C208 529 261 552 324 552H533C569 552 603 584 616 612L636 652L639 657C643 665 649 674 659 687C669 699 678 711 693 724C708 736 722 745 741 751C750 754 760 755 770 755C802 755 829 747 851 732C872 719 898 711 931 710z" />
    <glyph glyph-name="doorman"
      unicode="&#xF15D;"
      horiz-adv-x="905" d=" M862 -16V7C862 14 858 18 851 18H57C50 18 46 14 46 7V-16C46 -23 50 -27 57 -27H851C858 -27 862 -23 862 -16zM57 199H850C857 199 861 203 861 210V242C861 467 689 630 453 630S46 467 46 242V210C46 203 50 199 57 199zM850 153H476V63H850C881 63 907 37 907 6V-16C907 -48 881 -73 850 -73H57C26 -73 0 -48 0 -16V6C0 37 26 63 57 63H430V153H57C26 153 0 179 0 210V242C0 486 179 663 430 674V743H340C327 743 317 753 317 766C317 778 327 788 340 788H566C579 788 589 778 589 766C589 753 579 743 566 743H476V674C728 663 907 486 907 242V210C907 179 881 153 850 153z" />
    <glyph glyph-name="double-bed"
      unicode="&#xF15E;"
      horiz-adv-x="905" d=" M812 487V695C812 726 787 752 755 752H153C121 752 96 726 96 695V487L-46 187L-46 186V4C-46 -26 -22 -51 7 -53V-120C7 -132 17 -142 29 -142S51 -132 51 -120V-53H858V-120C858 -132 867 -142 879 -142S901 -132 901 -120L901 -53C931 -51 954 -26 954 4V186L812 487zM543 620H684C692 620 698 614 698 606V465C698 457 692 451 684 451H543C535 451 529 457 529 465V606C529 614 535 620 543 620zM379 606V465C379 457 373 451 365 451H224C216 451 210 457 210 465V606C210 614 216 620 224 620H365C373 620 379 614 379 606zM769 504H741V606C741 638 716 663 684 663H543C511 663 485 638 485 606V504H423V606C423 638 397 663 365 663H224C192 663 167 638 167 606V504H139V695C139 702 145 708 153 708H755C763 708 769 702 769 695V504zM171 464L171 464L171 464C171 464 171 464 171 464zM167 460C169 431 194 407 224 407H365C395 407 420 431 422 460H486C488 431 513 407 543 407H684C714 407 739 431 741 460H777L898 203H10L131 460H167zM911 4C911 -4 904 -10 897 -10H11C4 -10 -3 -4 -3 4V159H911V4z" />
    <glyph glyph-name="download"
      unicode="&#xF15F;"
      horiz-adv-x="905" d=" M566 675H782C813 675 839 649 839 618V-39C839 -70 813 -96 782 -96H125C94 -96 68 -70 68 -39V618C68 649 94 675 125 675H340C352 675 362 665 362 653C362 640 352 630 340 630H125C118 630 114 626 114 618V-39C114 -46 118 -50 125 -50H782C789 -50 793 -46 793 -39V618C793 626 789 630 782 630H566C554 630 544 640 544 653C544 665 554 675 566 675zM301 465C312 474 322 474 333 465L430 367V788C430 800 441 811 453 811C465 811 476 800 476 788V366L573 464C584 473 594 473 605 464C610 459 612 454 612 448C612 441 610 436 605 432L469 296C465 292 457 289 453 289S441 292 437 296L301 433C296 437 294 442 294 449C294 455 296 460 301 465z" />
    <glyph glyph-name="dryer"
      unicode="&#xF160;"
      horiz-adv-x="905" d=" M576 263C589 271 600 269 608 256C615 247 612 232 601 225C574 208 548 199 523 199C502 199 475 207 443 224C411 240 401 246 374 243C360 241 345 235 330 225C305 209 280 247 305 263C348 291 396 292 420 284C431 280 446 273 464 264C496 248 506 242 534 246C546 247 561 253 576 263zM576 353C601 369 626 331 601 315C574 298 548 289 523 289C504 289 478 297 443 314C411 330 401 336 374 333C360 331 345 325 330 315C317 308 306 310 298 322C291 331 294 346 305 353C348 382 396 383 420 375C431 371 446 364 464 355C496 338 506 332 534 336C546 337 561 343 576 353zM293 129C337 85 390 63 453 63C578 63 679 164 679 289S578 516 453 516S227 415 227 289C227 226 249 173 293 129zM261 482C314 535 378 562 453 562C604 562 725 438 725 289S604 18 453 18S181 140 181 289C181 365 208 429 261 482zM327 620C318 611 308 607 295 607C270 607 249 627 249 652S270 697 295 697S340 677 340 652C340 639 336 629 327 620zM191 684C200 675 204 665 204 652C204 627 184 607 159 607S114 627 114 652S134 697 159 697C172 697 182 693 191 684zM839 -16V731C839 739 835 743 827 743H80C72 743 68 739 68 731V-16C68 -24 72 -28 80 -28H826C835 -28 839 -24 839 -16zM80 788H826C858 788 883 763 883 731V-16C883 -48 858 -73 826 -73H80C48 -73 23 -48 23 -16V731C23 763 48 788 80 788z" />
    <glyph glyph-name="edit"
      unicode="&#xF161;"
      horiz-adv-x="905" d=" M273 250L249 173L325 197L273 250zM715 443C727 443 738 433 738 421V23C738 -25 697 -65 648 -65H140C91 -65 50 -25 50 23V574C50 623 89 662 140 662H505C517 662 527 652 527 640C527 627 517 617 505 617H140C115 617 95 598 95 574V23C95 0 115 -20 140 -20H648C672 -20 692 0 692 23V421C692 433 702 443 715 443zM371 216L740 584L660 664L291 295L371 216zM691 696L771 616L810 655C812 657 812 660 810 663L737 735C735 738 733 738 730 735L691 696zM770 767L843 695C853 685 858 673 858 659C858 645 853 633 843 623L394 174C390 171 387 170 384 169L221 117C220 116 217 116 214 116C202 116 186 129 193 145L244 310C245 313 247 316 250 319L698 767C707 776 719 781 734 781C748 781 760 776 770 767z" />
    <glyph glyph-name="elevator"
      unicode="&#xF162;"
      horiz-adv-x="905" d=" M618 250L550 318C545 323 543 328 543 335C543 341 545 346 550 350C561 361 571 361 582 350L611 321V494C611 506 621 516 634 516S657 506 657 494V321L686 350C697 361 707 361 718 350C723 346 725 341 725 335C725 328 723 323 718 318L650 250C646 246 641 244 634 244C627 244 622 246 618 250zM249 266V439L220 410C199 389 167 421 188 442L256 510C267 521 277 521 288 510L356 442C377 421 345 389 324 410L295 439V266C295 254 285 244 272 244S249 254 249 266zM793 -50V765H476V-50H793zM430 -50V765H114V-50H430zM839 765V-50H884C896 -50 907 -61 907 -73S896 -96 884 -96H23C11 -96 0 -85 0 -73S11 -50 23 -50H68V765H23C11 765 0 776 0 788S11 811 23 811H884C896 811 907 800 907 788S896 765 884 765H839z" />
    <glyph glyph-name="emergency-exit"
      unicode="&#xF163;"
      horiz-adv-x="905" d=" M-18 -107C-23 -107 -27 -106 -31 -103C-39 -98 -44 -90 -44 -81V614C-44 623 -39 632 -30 637L313 820C318 822 322 823 327 823H749C764 823 775 811 775 797V102C775 88 764 76 749 76H332L-6 -104C-10 -106 -14 -107 -18 -107zM8 598V-38L300 118V754L8 598zM351 128H723V771H351V128z M676 295C669 295 662 298 657 303L556 404L556 404C556 404 556 404 556 404C556 404 556 404 556 404C556 404 556 404 556 404C556 404 556 404 556 404C556 404 556 404 556 404C556 404 556 404 556 404V404C556 404 556 404 556 404C556 404 556 404 556 404L556 404C556 404 556 404 556 404L556 404C556 404 556 404 555 405L555 405C551 409 548 415 548 422L548 422C548 422 548 422 548 422C548 430 551 436 556 441L657 542C667 552 684 552 694 542C704 532 704 515 694 505L637 448H926C940 448 952 437 952 422C952 408 940 397 926 397H637L694 340C704 329 704 313 694 303C689 298 682 295 676 295z" />
    <glyph glyph-name="entire-place"
      unicode="&#xF164;"
      horiz-adv-x="905" d=" M747 -50V385L453 663L159 385V-50C159 -57 163 -61 170 -61H737C743 -61 747 -57 747 -50zM843 373L859 388C860 389 861 391 861 394C861 396 860 398 859 399L461 774C456 779 450 779 445 774L48 399C47 398 46 396 46 394C46 391 47 389 48 388L64 373C69 368 75 368 80 373L437 711C442 715 447 717 453 717S464 715 469 711L827 373C832 368 838 368 843 373zM492 807L890 431C901 421 907 408 907 393C907 377 901 364 890 354L874 339C863 329 850 324 835 324C820 324 807 329 796 339L793 341V-50C793 -81 768 -106 737 -106H170C139 -106 114 -81 114 -50V341L111 339C100 329 88 324 73 324S44 329 33 339L17 354C6 364 0 377 0 393C0 408 6 421 17 431L414 807C425 817 438 822 453 822S481 817 492 807z" />
    <glyph glyph-name="envelope-inbound"
      unicode="&#xF165;"
      horiz-adv-x="905" d=" M34 -73H877L602 201L471 70C466 65 461 63 455 63C448 63 443 65 439 70L308 201L34 -73zM907 -39V506L634 233L907 -39zM0 -42L276 233L0 509V-42zM544 607H895C926 607 952 582 952 550V-62C952 -93 926 -118 895 -118H12C-19 -118 -45 -93 -45 -62V550C-45 582 -19 607 12 607H362C375 607 385 597 385 584C385 572 375 562 362 562H12L455 118L898 561C897 562 896 562 895 562H544C531 562 521 572 521 584C521 597 531 607 544 607zM327 488L430 389V811C430 823 440 833 453 833C466 833 476 823 476 811V391L567 486C588 509 620 476 599 455L469 319C466 316 461 312 453 312C449 312 446 312 445 313H444C443 314 441 315 440 316L437 318L296 455C275 478 306 508 327 488z" />
    <glyph glyph-name="envelope-outbound"
      unicode="&#xF166;"
      horiz-adv-x="905" d=" M34 -73H877L602 201L471 70C466 65 461 63 455 63C448 63 443 65 439 70L308 201L34 -73zM907 -39V506L634 233L907 -39zM0 -42L276 233L0 509V-42zM544 607H895C926 607 952 582 952 550V-62C952 -93 926 -118 895 -118H12C-19 -118 -45 -93 -45 -62V550C-45 582 -19 607 12 607H362C375 607 385 597 385 584C385 572 375 562 362 562H12L455 118L898 561C897 562 896 562 895 562H544C531 562 521 572 521 584C521 597 531 607 544 607zM311 652C305 652 300 654 295 659C285 669 285 680 296 691L437 827L440 829C441 830 442 831 445 832C447 832 449 832 450 833H453C456 833 458 833 460 832C461 832 461 832 462 831L463 830H464C467 829 468 827 469 826L599 690C610 679 610 669 599 658C594 654 589 652 583 652C576 652 571 654 567 659L476 754V334C476 322 466 312 453 312C440 312 430 322 430 334V757L327 658C323 654 318 652 311 652z" />
    <glyph glyph-name="envelope"
      unicode="&#xF167;"
      horiz-adv-x="905" d=" M32 40H875L600 314L469 183C465 178 460 176 453 176C446 176 441 178 437 183L306 314L32 40zM907 72V620L632 346L907 72zM0 72L274 346L0 620V72zM895 675H12H10L453 231L897 675H895zM12 720H895C926 720 952 695 952 664V51C952 20 926 -5 895 -5H12C-19 -5 -45 20 -45 51V664C-45 695 -19 720 12 720z" />
    <glyph glyph-name="essentials"
      unicode="&#xF168;"
      horiz-adv-x="905" d=" M793 528H732V-88C732 -98 723 -107 711 -107L200 -107H199C193 -107 189 -105 184 -101C181 -98 179 -92 179 -87V-4H96C85 -4 76 4 76 16V528H15C3 528 -6 537 -6 548C-6 559 3 569 15 569H76V624C76 675 117 732 173 732H626C678 732 732 695 732 624V569H793C804 569 813 559 813 548C813 537 804 528 793 528zM219 -67L691 -67V528H608V16C608 4 599 -4 588 -4H219V-67zM117 160H568V221H117V160zM568 36V119H117V36H568zM691 624C691 670 658 692 626 692H173C142 692 117 655 117 624V262H568V558C568 620 590 653 637 653C647 653 656 644 656 632C656 621 647 611 637 611C620 611 610 604 609 569H691V624z" />
    <glyph glyph-name="events"
      unicode="&#xF169;"
      horiz-adv-x="905" d=" M382 98L713 429C715 431 716 434 716 437C716 440 715 443 713 444L540 619C538 621 535 622 532 622C529 622 526 621 524 619L193 287C191 285 190 282 190 279C190 276 191 273 193 271L366 98C369 95 371 94 374 94C377 94 379 95 382 98zM572 651L746 477C757 467 763 454 763 438C763 423 757 409 746 398L414 66C403 55 389 49 374 49S345 55 334 66L161 239C150 250 144 264 144 279C144 294 150 308 161 319L492 651C503 662 516 667 532 667S561 662 572 651zM319 -92L903 493C906 496 907 498 907 501C907 504 906 506 903 508L837 575C833 579 829 580 824 577C808 567 790 562 770 562C740 562 713 573 690 595C655 631 647 686 672 729C675 734 674 738 670 742L604 808C602 810 599 811 596 811S590 810 588 808L4 223C1 221 0 219 0 216S1 211 4 208L70 142C74 137 78 136 83 140C100 149 118 154 137 154C197 154 241 108 249 58C252 33 248 9 235 -13C232 -18 233 -22 237 -25L303 -92C306 -94 309 -95 311 -95S316 -94 319 -92zM869 607L935 540C946 530 952 517 952 501C952 486 946 472 935 461L351 -124C339 -135 326 -140 311 -140S283 -135 271 -124L205 -57C186 -40 183 -13 196 10C211 35 206 68 185 89C164 110 130 115 105 100C84 88 55 93 38 110L-28 176C-39 187 -45 201 -45 216C-45 232 -39 245 -28 255L555 840C566 851 580 856 595 856S624 851 635 840L701 774C720 755 723 730 710 707C695 682 700 648 721 627S776 601 801 616C823 628 852 624 869 607z" />
    <glyph glyph-name="external-link"
      unicode="&#xF16A;"
      horiz-adv-x="905" d=" M740 468C753 468 763 458 763 446V48C763 -1 724 -40 673 -40H165C116 -40 75 -1 75 48V599C75 648 116 687 165 687H530C542 687 552 677 552 665C552 652 542 642 530 642H165C140 642 121 623 121 599V48C121 24 140 5 165 5H673C698 5 717 24 717 48V446C717 458 728 468 740 468zM832 733V732L831 544C831 532 821 522 809 522C796 522 786 532 786 544V676L496 373C475 352 442 384 463 405L755 710L612 709C600 709 589 720 589 732S599 755 612 755H808C811 755 815 754 816 753H817C818 753 819 752 821 750C822 750 822 750 822 750L824 749V748L827 744L828 743C828 742 828 742 829 742C829 742 829 742 829 741V739C831 736 832 734 832 733z" />
    <glyph glyph-name="eye"
      unicode="&#xF16B;"
      horiz-adv-x="905" d=" M389 294C406 276 428 267 453 267C504 267 544 308 544 357C544 408 502 448 453 448S362 408 362 357C362 332 371 311 389 294zM325 231C360 196 403 178 453 178C553 178 635 259 635 360S554 541 453 541S272 460 272 360C272 309 290 266 325 231zM293 520C337 564 390 586 453 586C578 586 679 485 679 359S578 133 453 133S227 234 227 359C227 423 249 476 293 520zM182 123C264 68 354 40 453 40C650 40 823 156 927 357C823 559 650 675 453 675S84 559 -20 357C32 256 99 178 182 123zM972 368C975 362 975 355 972 348C861 123 672 -5 453 -5S46 123 -65 347C-68 354 -68 361 -65 367C46 592 234 720 453 720S861 592 972 368z" />
    <glyph glyph-name="facebook-messenger"
      unicode="&#xF16C;"
      horiz-adv-x="905" d=" M454 858C178 858 -46 651 -46 395C-46 249 27 119 140 35L140 -142L311 -49C356 -61 404 -68 454 -68C730 -68 954 139 954 395C954 651 730 858 454 858L454 858zM504 235L376 370L128 235L401 525L532 389L777 525L504 235L504 235z" />
    <glyph glyph-name="facebook"
      unicode="&#xF16D;"
      horiz-adv-x="905" d=" M224 403V521C224 533 234 544 246 544H318V603C318 740 389 810 530 811C577 811 622 805 664 793C677 789 682 781 681 768L665 653C664 648 661 643 656 638C650 635 644 633 638 634C613 641 587 644 558 644C518 644 512 636 512 595V544H642C654 544 665 532 665 519L655 400C655 388 645 380 633 380H512V-73C512 -85 502 -96 490 -96H341C329 -96 318 -85 318 -73V381H246C234 381 224 391 224 403z" />
    <glyph glyph-name="family"
      unicode="&#xF16E;"
      horiz-adv-x="905" d=" M601 -5V63C601 112 559 153 510 153H419C370 153 329 114 329 63V-5C329 -30 349 -50 374 -50H556C580 -50 601 -30 601 -5zM125 63H283C283 120 320 171 372 190C343 217 329 250 329 289C329 300 330 311 332 322C314 345 290 357 261 357H125C76 357 35 317 35 266V153C35 102 76 63 125 63zM378 317C375 309 374 300 374 289C374 238 413 199 464 199S555 240 555 289C555 340 515 380 464 380C425 380 392 356 379 320C379 319 379 318 378 317zM873 153V403C873 452 831 494 782 494H600C555 493 518 461 511 418C564 399 600 349 600 289C600 250 586 217 557 190C609 171 645 120 645 63H782C833 63 873 104 873 153zM113 597C91 574 80 547 80 516C80 453 130 403 193 403S306 455 306 516C306 579 256 630 193 630C162 630 135 619 113 597zM611 732C588 710 577 683 577 652C577 589 628 539 692 539S805 591 805 652C805 715 755 765 692 765C660 765 633 754 611 732zM801 538C868 529 918 471 918 402V153C918 78 857 18 782 18H646V-5C646 -56 604 -96 555 -96H374C325 -96 284 -56 284 -5V18H125C50 18 -11 78 -11 153V266C-11 327 31 381 88 397C52 428 34 468 34 516C34 604 105 675 193 675C280 675 351 604 351 516C351 469 333 429 298 397C319 390 338 380 353 366C381 407 419 426 466 425C477 482 522 528 581 537C548 568 532 606 532 652C532 740 603 811 692 811C779 811 850 740 850 652C850 607 834 569 801 538z" />
    <glyph glyph-name="filter"
      unicode="&#xF16F;"
      horiz-adv-x="905" d=" M405 83C418 70 434 63 453 63C490 63 521 94 521 131S490 199 453 199S385 168 385 131C385 112 392 96 405 83zM677 423C690 410 706 403 725 403C762 403 792 434 792 471S762 539 725 539C686 539 657 510 657 471C657 452 664 436 677 423zM181 494C220 494 249 525 249 562S218 630 181 630S114 599 114 562S144 494 181 494zM747 788V582C799 571 838 526 838 471S799 371 747 360V-73C747 -85 737 -96 724 -96C712 -96 702 -85 702 -73V359C650 370 611 415 611 470S650 570 702 581V788C702 800 712 811 724 811C737 811 747 800 747 788zM476 788V242C528 231 567 184 567 131C567 76 528 31 476 20V-73C476 -85 465 -96 453 -96C441 -96 430 -85 430 -73V20C378 31 339 76 339 131C339 184 378 231 430 242V788C430 800 441 811 453 811C465 811 476 800 476 788zM204 788V673C256 662 295 615 295 562C295 507 256 462 204 451V-73C204 -85 194 -96 181 -96C169 -96 159 -85 159 -73V451C107 462 68 507 68 562C68 615 107 662 159 673V788C159 800 169 811 181 811C194 811 204 800 204 788z" />
    <glyph glyph-name="fire-alarm"
      unicode="&#xF170;"
      horiz-adv-x="905" d=" M816 -140H93C75 -140 61 -126 61 -109V825C61 842 75 857 93 857H816C833 857 847 842 847 825V-109C847 -126 833 -140 816 -140zM124 -77H784V793H124V-77zM503 152H404C386 152 372 166 372 184V361H293C276 361 261 375 261 392V491C261 509 276 523 293 523H614C631 523 646 509 646 491V393C646 375 631 361 614 361H535V184C535 166 520 152 503 152zM436 216H471V393C471 410 485 424 503 424H582V460H325V424H404C421 424 436 410 436 393V216zM715 361C698 361 683 375 683 393V571H225V393C225 375 211 361 193 361S161 375 161 393V603C161 620 176 635 193 635H715C733 635 747 620 747 603V393C747 375 733 361 715 361z" />
    <glyph glyph-name="fire-alt"
      unicode="&#xF171;"
      horiz-adv-x="905" d=" M258 653C118 495 87 327 87 209C87 16 253 -142 457 -142S828 16 828 209C828 365 760 459 688 558C626 643 562 730 546 858C401 722 456 431 456 428C459 417 454 405 445 399C435 393 423 392 413 398C297 472 265 581 258 653z" />
    <glyph glyph-name="fire-extinguisher"
      unicode="&#xF172;"
      horiz-adv-x="905" d=" M585 -140H332C290 -140 257 -106 257 -65V481C257 564 306 637 382 668V688H326C245 688 179 622 179 541C179 528 168 518 156 518C143 518 133 528 133 541C133 647 220 734 326 734H375C355 745 342 767 342 791C342 827 371 857 407 857C435 857 459 839 469 814H512C525 814 535 804 535 791V734H570V761C570 772 578 782 589 784L749 810C756 811 762 809 767 805C772 800 775 794 775 787V635C775 628 772 622 767 618C762 613 756 611 749 613L589 639C586 639 584 640 582 641C631 604 661 545 661 481V-65C661 -106 627 -140 585 -140zM428 688V652C428 642 421 633 412 630C346 609 302 549 302 481V-65C302 -81 316 -95 332 -95H585C602 -95 615 -81 615 -65V61H459C446 61 436 71 436 84V427C436 440 446 450 459 450H615V481C615 549 571 609 505 630C496 633 489 642 489 652V688H428zM481 107H615V404H481V107zM535 668C550 662 564 654 576 645C572 649 569 655 569 661V688H535V668zM615 681L730 662V761L615 742V681zM428 734H489V768H450C437 768 427 778 427 791C427 802 418 811 407 811S387 802 387 791C387 780 396 772 406 771C418 771 428 761 428 748V734z" />
    <glyph glyph-name="fire"
      unicode="&#xF173;"
      horiz-adv-x="905" d=" M295 579C302 492 343 424 418 376C427 370 436 370 443 377C451 382 454 389 453 400C452 401 451 410 449 426C444 457 442 517 449 576C456 634 481 702 524 742C532 679 563 610 586 575C597 558 614 534 636 503C687 435 705 410 729 338C741 302 747 265 747 226C747 73 616 -53 453 -53S159 73 159 226C159 359 204 477 295 579zM214 -3C280 -66 360 -98 453 -98C640 -98 792 47 792 226C792 291 781 349 754 402C726 455 712 477 673 530C625 597 608 617 584 684C572 717 566 751 566 786C566 803 547 813 532 805C468 766 425 696 413 632C400 567 393 493 401 449C373 478 354 517 347 546C339 574 338 606 339 619C339 625 339 629 340 632C343 653 317 666 302 651C177 533 114 392 114 226C114 137 147 60 214 -3z" />
    <glyph glyph-name="fireplace"
      unicode="&#xF174;"
      horiz-adv-x="905" d=" M725 -5V108H594C557 63 510 40 453 40S349 63 312 108H181V-5H725zM317 221C317 146 378 85 453 85S590 146 590 221C590 269 577 326 552 392C539 427 531 451 528 466C503 427 486 375 476 309C473 292 456 284 441 293C408 316 385 344 374 377C336 330 317 278 317 221zM816 -5V630H771V-5H816zM725 153V630H181V153H285C276 176 272 198 272 221C272 303 304 377 369 442C384 455 408 445 408 426C408 402 418 379 438 356C459 448 490 508 531 535C546 546 566 535 566 516C566 493 575 457 593 408C620 340 634 278 634 222C634 199 630 177 621 154H725zM136 -5V630H91V-5H136zM57 675H850C857 675 861 679 861 686V709C861 716 857 720 850 720H57C50 720 46 716 46 709V686C46 679 50 675 57 675zM861 631V-5H907C919 -5 929 -15 929 -28C929 -40 919 -50 907 -50H0C-12 -50 -22 -40 -22 -28C-22 -15 -12 -5 0 -5H46V631C19 636 0 659 0 686V709C0 740 26 765 57 765H850C881 765 907 740 907 709V686C907 659 888 636 861 631z" />
    </font>
</defs>
</svg>
